<?xml version="1.0" standalone="no"?>
<!DOCTYPE svg PUBLIC "-//W3C//DTD SVG 1.1//EN" "http://www.w3.org/Graphics/SVG/1.1/DTD/svg11.dtd" >
<svg xmlns="http://www.w3.org/2000/svg">
<metadata>Generated by IcoMoon</metadata>
<defs>
<font id="icomoon" horiz-adv-x="1024">
<font-face units-per-em="1024" ascent="960" descent="-64" />
<missing-glyph horiz-adv-x="1024" />
<glyph unicode="&#x20;" horiz-adv-x="512" d="" />
<glyph unicode="&#xe900;" glyph-name="angle-down-thin" horiz-adv-x="2304" d="M1120-51.2l-1107.2 940.8c-19.2 19.2-19.2 44.8 0 57.6 19.2 19.2 51.2 19.2 70.4 0l1068.8-908.8 1068.8 908.8c19.2 19.2 51.2 12.8 70.4 0 6.4-6.4 12.8-19.2 12.8-32s-6.4-25.6-12.8-32l-1107.2-940.8c-19.2-12.8-44.8-12.8-64 6.4z" />
<glyph unicode="&#xe901;" glyph-name="angle-down" horiz-adv-x="1721" d="M152.511 960l-152.511-152.511 871.489-871.489 871.489 871.489-174.298 152.511-697.191-718.979-718.979 718.979z" />
<glyph unicode="&#xe902;" glyph-name="angle-left-thin" horiz-adv-x="455" d="M5.689 462.222l418.133 492.089c8.533 8.533 19.911 8.533 25.6 0 8.533-8.533 8.533-22.756 0-31.289l-403.911-475.022 403.911-475.022c8.533-8.533 5.689-22.756 0-31.289-2.844-2.844-8.533-5.689-14.222-5.689s-11.378 2.844-14.222 5.689l-418.133 492.089c-5.689 8.533-5.689 19.911 2.844 28.444z" />
<glyph unicode="&#xe903;" glyph-name="angle-left" horiz-adv-x="609" d="M609.215 869.266l-90.734 90.734-518.481-518.481 518.481-505.519 90.734 90.734-427.747 414.785z" />
<glyph unicode="&#xe904;" glyph-name="angle-right-thin" horiz-adv-x="455" d="M449.422 433.778l-418.133-492.089c-8.533-8.533-19.911-8.533-25.6 0-8.533 8.533-8.533 22.756 0 31.289l403.911 475.022-403.911 475.022c-8.533 8.533-5.689 22.756 0 31.289 2.844 2.844 8.533 5.689 14.222 5.689s11.378-2.844 14.222-5.689l415.289-492.089c8.533-8.533 8.533-19.911 0-28.444z" />
<glyph unicode="&#xe905;" glyph-name="angle-right" horiz-adv-x="609" d="M0 26.734l90.734-90.734 518.481 518.481-518.481 505.519-90.734-90.734 427.747-414.785z" />
<glyph unicode="&#xe906;" glyph-name="angle-up-thin" horiz-adv-x="2304" d="M1184 947.2l1107.2-940.8c19.2-19.2 19.2-44.8 0-57.6-19.2-19.2-51.2-19.2-70.4 0l-1068.8 908.8-1068.8-908.8c-19.2-19.2-51.2-12.8-70.4 0-6.4 6.4-12.8 19.2-12.8 32s6.4 25.6 12.8 32l1107.2 934.4c19.2 19.2 44.8 19.2 64 0z" />
<glyph unicode="&#xe907;" glyph-name="angle-up" horiz-adv-x="1721" d="M1568.681-64l152.511 152.511-849.702 871.489-871.489-871.489 152.511-152.511 718.979 718.979z" />
<glyph unicode="&#xe908;" glyph-name="cart" horiz-adv-x="887" d="M887.070-28.279l-77.395 744.186c0 17.86-11.907 29.767-29.767 29.767h-148.837v35.721c0 95.256-83.349 178.605-190.512 178.605-101.209 0-190.512-83.349-190.512-190.512v-35.721h-142.884c-17.86 0-29.767-11.907-29.767-29.767l-77.395-732.279c0-5.953 0-17.86 5.953-23.814s11.907-11.907 23.814-11.907h827.535c5.953 0 17.86 5.953 23.814 11.907s5.953 11.907 5.953 23.814zM315.535 769.488c0 71.442 59.535 130.977 125.023 130.977 71.442 0 125.023-59.535 125.023-125.023v-35.721h-250.047v29.767zM65.488-4.465l71.442 678.698h119.070v-65.488c0-17.86 11.907-29.767 29.767-29.767s29.767 11.907 29.767 29.767v65.488h256v-65.488c0-17.86 11.907-29.767 29.767-29.767s29.767 11.907 29.767 29.767v65.488h119.070l71.442-678.698h-756.093z" />
<glyph unicode="&#xe909;" glyph-name="check" horiz-adv-x="1340" d="M424.851 153.872l-315.915 315.915-108.936-108.936 424.851-424.851 915.064 915.064-108.936 108.936z" />
<glyph unicode="&#xe90a;" glyph-name="close" d="M1024 857.6l-102.4 102.4-409.6-409.6-409.6 409.6-102.4-102.4 409.6-409.6-409.6-409.6 102.4-102.4 409.6 409.6 409.6-409.6 102.4 102.4-409.6 409.6z" />
<glyph unicode="&#xe90b;" glyph-name="delete" horiz-adv-x="957" d="M675.214 807.965v84.961c0 35.773-31.301 67.074-67.074 67.074h-259.354c-40.245 0-67.074-31.301-67.074-67.074v-84.961h-281.712v-80.489h84.961l67.074-755.703c0-22.358 17.886-35.773 40.245-35.773h572.367c22.358 0 40.245 17.886 40.245 35.773l67.074 755.703h84.961v80.489h-281.712zM362.201 879.511h236.996v-71.546h-236.996v71.546z" />
<glyph unicode="&#xe90c;" glyph-name="delivery" d="M492.020 897.561c-109.893-82.42-149.854-227.278-99.902-354.654h-224.78c-39.961 0-69.932-32.468-69.932-72.429v-69.932h-79.922c-22.478 0-22.478-32.468 0-32.468h79.922v-79.922h-32.468c-19.98 0-22.478-32.468 0-32.468h32.468v-79.922h-79.922c-22.478 0-22.478-32.468 0-32.468h79.922v-127.376c0-9.99 7.493-14.985 14.985-14.985h94.907c9.99-37.463 42.459-64.937 84.917-64.937 39.961 0 74.927 27.473 84.917 64.937h397.112c9.99-37.463 44.956-64.937 84.917-64.937 44.956 0 84.917 34.966 89.912 79.922h57.444c9.99 0 14.985 7.493 14.985 14.985v179.824c0 2.498 0 4.995-2.498 7.493l-69.932 157.346c-2.498 4.995-7.493 9.99-14.985 9.99h-197.307v87.415c0 39.961-32.468 72.429-69.932 72.429h-239.766c-12.488 29.971-19.98 62.439-22.478 94.907h17.483c22.478 0 22.478 32.468 0 32.468h-17.483c4.995 77.424 42.459 152.351 107.395 202.302 44.956 32.468 97.405 52.449 149.854 54.946v-19.98c0-22.478 32.468-22.478 32.468 0v17.483c67.434-4.995 132.371-32.468 182.322-84.917 44.956-47.454 69.932-109.893 74.927-172.332h-17.483c-22.478 0-22.478-32.468 0-32.468h14.985c-2.498-47.454-17.483-94.907-44.956-134.868l-14.985 52.449c-4.995 19.98-37.463 12.488-29.971-9.99l22.478-82.42c2.498-7.493 9.99-12.488 17.483-12.488l84.917 12.488c22.478 2.498 17.483 34.966-4.995 32.468l-47.454-7.493c74.927 117.385 62.439 272.234-34.966 374.634-72.429 79.922-157.346 97.405-222.283 97.405s-127.376-19.98-182.322-62.439v0zM661.854 800.156v-144.859c0-4.995 2.498-9.99 7.493-14.985l94.907-54.946c19.98-12.488 37.463 17.483 14.985 27.473l-87.415 49.951v137.366c0 19.98-29.971 19.98-29.971 0v0zM167.337 512.937h497.015c22.478 0 37.463-17.483 37.463-39.961v-439.571h-322.185c-2.498 44.956-42.459 82.42-89.912 82.42s-84.917-37.463-89.912-82.42h-74.927v112.39h54.946c22.478 0 22.478 32.468 0 32.468h-52.449v79.922h112.39c22.478 0 22.478 32.468 0 32.468h-112.39v79.922h52.449c22.478 0 22.478 32.468 0 32.468h-52.449v69.932c0 22.478 17.483 39.961 39.961 39.961v0zM287.22 465.483c-22.478 0-22.478-32.468 0-32.468h64.937c19.98 0 19.98 32.468 0 32.468h-64.937zM734.283 353.093h94.907v-159.844c0-9.99 7.493-14.985 14.985-14.985h144.859v-127.376h-44.956c-7.493 34.966-42.459 67.434-87.415 67.434-47.454 0-84.917-37.463-89.912-82.42h-34.966v317.19zM864.156 353.093h59.941l67.434-144.859h-127.376v144.859zM292.215 83.356c32.468 0 57.444-24.976 57.444-57.444s-24.976-57.444-57.444-57.444-57.444 24.976-57.444 57.444c0 32.468 24.976 57.444 57.444 57.444v0zM859.161 83.356c32.468 0 57.444-24.976 57.444-57.444s-24.976-57.444-57.444-57.444c-32.468 0-57.444 24.976-57.444 57.444s27.473 57.444 57.444 57.444v0z" />
<glyph unicode="&#xe90d;" glyph-name="envelope" horiz-adv-x="1280" d="M1152 960h-1024c-72 0-128-56-128-128v-768c0-72 56-128 128-128v0h1024c72 0 128 56 128 128 0 0 0 0 0 0v768c0 72-56 128-128 128v0zM1152 704l-512-320-512 320v128l512-320 512 320v-128z" />
<glyph unicode="&#xe90e;" glyph-name="facebook" horiz-adv-x="476" d="M454.31 448h-144.225v-512h-209.127v512h-100.958v180.282h100.958v115.38c-7.211 108.169 72.113 209.127 180.282 216.338 7.211 0 21.634 0 28.845 0h158.648v-173.070h-108.169c-28.845 0-43.268-21.634-50.479-43.268 0 0 0-7.211 0-7.211v-108.169h158.648l-14.423-180.282z" />
<glyph unicode="&#xe90f;" glyph-name="gift-boxes" horiz-adv-x="949" d="M412.485 729.239c5.769 0 11.538 2.885 14.423 5.769s2.885 8.654 2.885 14.423c-11.538 40.383-31.73 80.766-60.575 112.496-23.076 23.076-57.69 34.614-89.42 28.845-5.769-2.885-11.538-5.769-11.538-11.538 0-2.885-2.885-5.769-2.885-8.654s0-5.769 0-8.654v0c0-25.961 11.538-51.921 31.73-72.113 31.73-28.845 72.113-49.037 112.496-60.575 0 0 0 0 2.885 0zM320.18 812.89c-5.769 5.769-11.538 14.423-14.423 23.076v0c0 2.885 0 2.885-2.885 5.769 0 0 0 2.885 0 2.885s0 2.885 0 2.885c0 0 0 0 0 2.885s0 5.769 0 8.654c17.307 0 31.73-8.654 43.268-20.192 17.307-20.192 31.73-40.383 40.383-63.459-25.961 8.654-49.037 23.076-66.344 37.499v0zM931.696 714.817h-262.49c11.538 8.654 23.076 17.307 31.73 25.961 60.575 60.575 63.459 152.879 23.076 193.262s-129.803 37.499-193.262-23.076c-25.961-25.961-46.152-57.69-60.575-92.304-14.423 34.614-34.614 63.459-60.575 92.304-60.575 60.575-152.879 63.459-193.262 23.076-31.73-37.499-28.845-129.803 31.73-193.262 8.654-8.654 20.192-17.307 31.73-25.961h-262.49c-8.654 0-17.307-5.769-17.307-14.423v-170.186c0-8.654 8.654-17.307 17.307-17.307h34.614v-493.251c0-46.152 37.499-83.651 83.651-83.651h677.859c46.152 0 83.651 37.499 83.651 83.651v493.251h34.614c8.654 0 17.307 8.654 17.307 17.307v170.186c0 8.654-5.769 14.423-17.307 14.423zM559.594 885.003c49.037 49.037 121.149 49.037 144.225 23.076 23.076-23.076 25.961-95.189-23.076-144.225-23.076-20.192-49.037-37.499-74.997-49.037h-100.958c0 0 0 0 0 0 0 2.885 0 8.654 0 11.538 0 0 0 2.885 0 2.885 0 2.885 0 5.769-2.885 8.654 0 0 0 2.885 0 2.885 0 2.885-2.885 8.654-2.885 11.538 0 0 0 0 0 2.885s-2.885 5.769-2.885 11.538c0 0 0 0 0 0 11.538 46.152 31.73 86.535 63.459 118.265v0zM542.287 547.515h-135.572v135.572h135.572v-135.572zM271.144 766.738c-49.037 49.037-49.037 118.265-23.076 144.225 23.076 23.076 95.189 25.961 144.225-23.076 31.73-34.614 54.806-74.997 69.228-118.265 0-8.654 0-14.423 2.885-20.192 0-2.885 0-2.885 0-5.769s2.885-8.654 2.885-11.538c0 0 0-2.885 0-2.885 0-2.885 0-8.654 0-11.538h-121.149c-28.845 11.538-51.921 28.845-74.997 49.037zM34.614 683.087h340.372v-135.572h-340.372v135.572zM83.651 19.651v493.251h323.065v-542.287h-271.144c-28.845 0-51.921 23.076-51.921 49.037zM441.33-29.386v542.287h69.228v-542.287h-69.228zM865.352 19.651c0-28.845-23.076-51.921-51.921-51.921h-271.144v545.172h323.065v-493.251zM917.273 547.515h-340.372v135.572h340.372v-135.572zM536.518 726.355c2.885 0 2.885 0 5.769 0 40.383 11.538 80.766 34.614 112.496 60.575 23.076 23.076 34.614 57.69 28.845 89.42-2.885 5.769-5.769 8.654-8.654 8.654-31.73 5.769-66.344-2.885-89.42-28.845-28.845-31.73-49.037-72.113-60.575-112.496-2.885-5.769 0-11.538 2.885-14.423 0 0 2.885-2.885 8.654-2.885v0zM605.746 838.851c11.538 11.538 28.845 20.192 43.268 20.192 0-17.307-8.654-31.73-20.192-43.268-20.192-17.307-40.383-31.73-63.459-40.383 11.538 23.076 23.076 43.268 40.383 63.459z" />
<glyph unicode="&#xe910;" glyph-name="gift-card" horiz-adv-x="1237" d="M1083.362 94.671l-59.362-123.671c-4.947-14.841-19.787-24.734-34.628-29.681s-29.681-4.947-44.522 0v0l-311.652 153.353h450.164zM1172.406 436.005v-227.556c0-39.575-29.681-69.256-64.309-69.256v0h-732.135v262.184c49.469-49.469 113.778-74.203 183.034-74.203v0 44.522c-54.415 0-113.778 24.734-153.353 64.309v0h766.763zM306.705 436.005c-39.575-39.575-93.99-64.309-153.353-64.309v0-44.522c64.309 0 128.618 24.734 178.087 69.256v0-257.237h-197.874c-34.628 0-64.309 29.681-64.309 69.256v0 227.556h237.449zM1063.575 277.705h-44.522v-44.522h44.522v44.522zM974.531 277.705h-44.522v-44.522h44.522v44.522zM885.488 277.705h-44.522v-44.522h44.522v44.522zM796.444 277.705h-44.522v-44.522h44.522v44.522zM1216.928 495.367c19.787-19.787 29.681-49.469 14.841-74.203v0l-14.841-34.628v108.831zM19.787 510.207v-108.831c-19.787 19.787-29.681 49.469-14.841 74.203v0l14.841 34.628zM331.44 777.338v-197.874l-14.841 44.522c-19.787 44.522-59.362 69.256-103.884 64.309-39.575-9.894-74.203-44.522-79.15-89.043-4.947-39.575 19.787-84.097 59.362-98.937v0l39.575-14.841h-168.193v222.609c0 39.575 29.681 69.256 64.309 69.256v0h202.821zM1108.097 777.338c34.628 0 64.309-29.681 64.309-69.256v0-227.556h-692.56l39.575 14.841c39.575 14.841 64.309 59.362 59.362 103.884s-39.575 79.15-79.15 84.097c-44.522 4.947-84.097-19.787-98.937-59.362v0l-24.734-59.362v212.715h732.135zM440.271 609.145c9.894 24.734 34.628 34.628 54.415 29.681s39.575-24.734 39.575-49.469c0-19.787-14.841-39.575-29.681-49.469v0l-108.831-44.522 44.522 113.778zM227.556 643.773c19.787 0 39.575-14.841 44.522-34.628v0l44.522-113.778-108.831 44.522c-19.787 9.894-34.628 34.628-29.681 59.362s24.734 39.575 49.469 44.522zM796.444 708.082h-44.522v-89.043h44.522v89.043zM885.488 708.082h-44.522v-89.043h44.522v89.043zM974.531 708.082h-44.522v-89.043h44.522v89.043zM1063.575 708.082h-44.522v-89.043h44.522v89.043zM247.343 955.425c14.841 4.947 29.681 4.947 44.522 0v0l262.184-128.618h-385.855l49.469 103.884c4.947 9.894 14.841 19.787 29.681 24.734z" />
<glyph unicode="&#xe911;" glyph-name="heart-o" horiz-adv-x="1152" d="M1152 601.6c0 96-32 185.6-96 249.6s-147.2 102.4-236.8 102.4c0 0 0 0-6.4 0-70.4 0-134.4-25.6-192-64-12.8-6.4-32-25.6-44.8-38.4-12.8 12.8-32 32-51.2 44.8-51.2 44.8-121.6 64-192 64 0 0 0 0-6.4 0-83.2 0-172.8-38.4-230.4-102.4-64-70.4-96-160-96-256 0-19.2 6.4-44.8 6.4-64v0c12.8-83.2 51.2-160 108.8-217.6 83.2-89.6 179.2-179.2 275.2-256l12.8-6.4c32-32 70.4-64 115.2-96 0 0 0 0 6.4 0 19.2-12.8 38.4-19.2 57.6-19.2 25.6 0 44.8 6.4 64 25.6 44.8 38.4 83.2 76.8 121.6 102.4 96 76.8 192 160 275.2 256 57.6 64 96 134.4 108.8 217.6-6.4 12.8 0 38.4 0 57.6zM985.6 364.8c-83.2-89.6-172.8-172.8-268.8-249.6-38.4-32-83.2-70.4-121.6-108.8-12.8-12.8-32-12.8-44.8 0 0 0 0 0 0 0-38.4 32-76.8 64-108.8 96l-12.8 6.4c-96 76.8-185.6 160-268.8 249.6-44.8 51.2-76.8 115.2-89.6 179.2-6.4 19.2-6.4 44.8-6.4 64 0 76.8 25.6 153.6 76.8 211.2 51.2 51.2 121.6 83.2 192 83.2 0 0 0 0 6.4 0 51.2 0 108.8-19.2 147.2-51.2 25.6-19.2 44.8-38.4 64-64l25.6-38.4 25.6 38.4c19.2 25.6 38.4 44.8 64 64 44.8 32 96 51.2 147.2 51.2 0 0 0 0 0 0 70.4 0 147.2-32 192-83.2 51.2-57.6 76.8-134.4 76.8-211.2 0-25.6-6.4-44.8-6.4-70.4v0c-6.4-57.6-38.4-121.6-89.6-166.4z" />
<glyph unicode="&#xe912;" glyph-name="heart" horiz-adv-x="1152" d="M1056 857.6c-64 64-147.2 102.4-236.8 102.4 0 0 0 0-6.4 0-70.4 0-134.4-25.6-192-64-12.8-12.8-32-32-44.8-44.8-12.8 12.8-32 32-51.2 44.8-51.2 44.8-121.6 64-192 64 0 0 0 0-6.4 0-83.2 0-172.8-38.4-230.4-102.4-64-70.4-96-160-96-256 0-102.4 44.8-204.8 115.2-281.6 83.2-89.6 179.2-179.2 275.2-256l12.8-6.4c32-32 70.4-64 115.2-96 0 0 0 0 6.4 0 6.4-19.2 32-25.6 51.2-25.6 25.6 0 44.8 6.4 64 25.6 44.8 38.4 83.2 76.8 121.6 102.4 96 76.8 192 160 275.2 256 70.4 76.8 115.2 179.2 115.2 281.6 0 96-32 185.6-96 256z" />
<glyph unicode="&#xe913;" glyph-name="info-bubble" horiz-adv-x="869" d="M434.717 957.766c-241.509 0-434.717-198.038-434.717-444.377 0-169.057 91.774-313.962 227.019-391.245l-4.83-183.547 202.868 130.415c4.83 0 4.83 0 9.66 0 241.509 0 434.717 198.038 434.717 449.208s-193.208 439.547-434.717 439.547zM487.849 252.559h-111.094v367.094h111.094v-367.094zM434.717 667.955c-38.642 0-57.962 24.151-57.962 57.962s24.151 57.962 57.962 57.962c33.811 0 57.962-24.151 57.962-57.962s-24.151-57.962-57.962-57.962z" />
<glyph unicode="&#xe914;" glyph-name="instagram" horiz-adv-x="1031" d="M515.391 960c-210.225 0-406.887 20.344-488.265-176.318-27.126-81.377-27.126-189.881-27.126-339.073-6.781-115.285 0-223.788 27.126-339.073 74.596-196.662 278.040-176.318 488.265-176.318 203.444 0 406.887-20.344 488.265 176.318 33.907 81.377 27.126 183.099 27.126 339.073 0 203.444 13.563 332.291-88.159 427.232-101.722 101.722-230.57 88.159-427.232 88.159v0zM467.921 865.060c440.795 0 495.046 47.47 461.139-630.675-13.563-237.351-189.881-210.225-420.45-210.225-406.887 0-420.45 13.563-420.45 420.45 6.781 413.669 40.689 420.45 379.762 420.45v0zM786.649 783.682c-33.907 0-61.033-27.126-61.033-61.033s27.126-61.033 61.033-61.033c33.907 0 61.033 27.126 61.033 61.033 0 0 0 0 0 0 6.781 33.907-27.126 61.033-61.033 61.033zM515.391 709.086c-142.411 0-264.477-115.285-264.477-264.477s115.285-264.477 264.477-264.477 264.477 115.285 264.477 264.477-115.285 264.477-264.477 264.477v0zM515.391 620.927c223.788 0 223.788-339.073 0-339.073s-223.788 339.073 0 339.073v0z" />
<glyph unicode="&#xe915;" glyph-name="mail" horiz-adv-x="1458" d="M1458.087 64v695.652l-395.13-311.652zM0 759.652v-695.652l406.261 384zM857.043 292.174c-72.348-55.652-172.522-55.652-244.87 0l-150.261 111.304-445.217-417.391c16.696-27.826 50.087-50.087 83.478-50.087h1257.739c33.391 0 66.783 16.696 83.478 50.087l-434.087 422.957-150.261-116.87zM1357.913 960h-1257.739c-55.652 0-100.174-44.522-100.174-100.174v-16.696l656.696-500.87c50.087-38.957 116.87-38.957 161.391 0l640 500.87v16.696c0 55.652-44.522 100.174-100.174 100.174z" />
<glyph unicode="&#xe916;" glyph-name="map" horiz-adv-x="762" d="M379.817-64c-12.488 0-31.22 6.244-43.707 18.732l-6.244 6.244c-56.195 62.439-330.927 387.122-330.927 624.39 0 212.293 168.585 380.878 380.878 380.878s380.878-168.585 380.878-380.878c0-249.756-318.439-611.902-330.927-624.39-12.488-18.732-31.22-24.976-49.951-24.976 0 0 0 0 0 0zM379.817 897.561c-174.829 0-318.439-143.61-318.439-318.439 0-218.537 280.976-543.22 318.439-580.683v0c6.244 6.244 318.439 355.902 318.439 580.683 0 174.829-143.61 318.439-318.439 318.439zM379.817 373.073c-112.39 0-206.049 93.659-206.049 206.049v0c0 112.39 93.659 206.049 206.049 206.049s206.049-93.659 206.049-206.049c0-112.39-93.659-206.049-206.049-206.049zM236.207 579.122c0-81.171 62.439-143.61 143.61-143.61s143.61 62.439 143.61 143.61-62.439 143.61-143.61 143.61-143.61-62.439-143.61-143.61z" />
<glyph unicode="&#xe917;" glyph-name="minus" d="M1024 370.717v144.906h-1024v-144.906z" />
<glyph unicode="&#xe918;" glyph-name="plus" d="M1024 370.717h-434.717v-434.717h-144.906v434.717h-444.377v144.906h444.377v444.377h144.906v-444.377h434.717z" />
<glyph unicode="&#xe919;" glyph-name="search" d="M953.6-51.2l-211.2 211.2c-192-160-473.6-134.4-633.6 57.6s-134.4 473.6 57.6 633.6 473.6 134.4 633.6-57.6c140.8-166.4 140.8-409.6 0-576l211.2-211.2c19.2-19.2 19.2-44.8 0-57.6s-38.4-19.2-57.6 0zM83.2 505.6c0-204.8 166.4-364.8 364.8-364.8s364.8 166.4 364.8 364.8-166.4 364.8-364.8 364.8c-198.4 6.4-364.8-160-364.8-364.8z" />
<glyph unicode="&#xe91a;" glyph-name="security" d="M239.766 705.249c27.473 0 49.951 22.478 49.951 49.951v67.434c0 27.473-22.478 49.951-49.951 49.951h-102.4c-27.473 0-49.951-22.478-49.951-49.951v-67.434c0-27.473 22.478-49.951 49.951-49.951h102.4zM239.766 737.717h-49.951v34.966h67.434v-17.483c-2.498-9.99-9.99-17.483-17.483-17.483zM254.751 822.634v-17.483h-67.434v34.966h49.951c9.99 0 17.483-7.493 17.483-17.483zM137.366 840.117h17.483v-34.966h-34.966v17.483c0 9.99 7.493 17.483 17.483 17.483zM119.883 755.2v17.483h34.966v-34.966h-17.483c-9.99 0-17.483 7.493-17.483 17.483zM137.366 602.849c-9.99 0-17.483-7.493-17.483-17.483s7.493-17.483 17.483-17.483h102.4c9.99 0 17.483 7.493 17.483 17.483s-7.493 17.483-17.483 17.483h-102.4zM324.683 602.849h-17.483c-9.99 0-17.483-7.493-17.483-17.483s7.493-17.483 17.483-17.483h17.483c9.99 0 17.483 7.493 17.483 17.483s-9.99 17.483-17.483 17.483zM169.834 500.449h-32.468c-9.99 0-17.483-7.493-17.483-17.483s7.493-17.483 17.483-17.483h34.966c9.99 0 17.483 7.493 17.483 17.483-2.498 9.99-9.99 17.483-19.98 17.483zM324.683 500.449h-67.434c-9.99 0-17.483-7.493-17.483-17.483s7.493-17.483 17.483-17.483h67.434c9.99 0 17.483 7.493 17.483 17.483s-9.99 17.483-17.483 17.483zM631.883 720.234c19.98 0 37.463 7.493 49.951 22.478 17.483-22.478 47.454-29.971 74.927-19.98 27.473 12.488 44.956 37.463 44.956 67.434s-17.483 54.946-44.956 64.937c-27.473 9.99-57.444 2.498-74.927-19.98-19.98 22.478-54.946 29.971-82.42 14.985s-42.459-44.956-34.966-77.424 34.966-52.449 67.434-52.449zM734.283 822.634c19.98 0 34.966-14.985 34.966-34.966s-14.985-34.966-34.966-34.966c-19.98 0-34.966 14.985-34.966 34.966s14.985 34.966 34.966 34.966zM631.883 822.634c19.98 0 34.966-14.985 34.966-34.966s-17.483-32.468-34.966-32.468-34.966 14.985-34.966 34.966 14.985 32.468 34.966 32.468zM974.049 602.849c-29.971 2.498-59.941 4.995-87.415 9.99v227.278c0 64.937-52.449 119.883-119.883 119.883h-646.868c-67.434 0-119.883-52.449-119.883-119.883v-357.151c0-64.937 52.449-119.883 119.883-119.883h254.751v-32.468c0-2.498 0-4.995 0-7.493 4.995-29.971 49.951-294.712 307.2-384.624 9.99-2.498 22.478-2.498 32.468 0 259.746 89.912 304.702 354.654 307.2 384.624 0 2.498 0 4.995 0 7.493v219.785c2.498 27.473-19.98 49.951-47.454 52.449zM119.883 398.049c-47.454 0-84.917 37.463-84.917 84.917v357.151c0 47.454 37.463 84.917 84.917 84.917h646.868c47.454 0 84.917-37.463 84.917-84.917v-219.785c-44.956 12.488-84.917 32.468-119.883 59.941-19.98 14.985-44.956 14.985-64.937 0-77.424-62.439-184.82-77.424-242.263-79.922-27.473-2.498-49.951-24.976-47.454-52.449v-152.351h-257.249zM989.034 330.615c0 0 0-2.498 0 0-4.995-29.971-47.454-277.229-284.722-359.649-2.498 0-7.493 0-9.99 0-237.268 82.42-279.727 327.18-284.722 357.151 0 0 0 2.498 0 2.498v219.785c0 9.99 7.493 17.483 14.985 17.483 62.439 2.498 177.327 17.483 262.244 87.415 7.493 4.995 14.985 4.995 22.478 0 84.917-67.434 202.302-82.42 262.244-87.415 9.99 0 14.985-7.493 14.985-17.483v-219.785zM939.083 535.415c-82.42 7.493-162.341 32.468-229.776 77.424-4.995 4.995-12.488 4.995-19.98 0-69.932-44.956-149.854-69.932-229.776-77.424-7.493 0-14.985-7.493-14.985-17.483v-184.82c0 0 0-2.498 0-2.498 4.995-39.961 47.454-244.761 249.756-322.185 4.995-2.498 7.493-2.498 12.488 0 207.298 77.424 244.761 297.21 249.756 322.185 0 0 0 2.498 0 2.498v184.82c-2.498 9.99-7.493 17.483-17.483 17.483zM921.6 335.61c-4.995-27.473-39.961-219.785-222.283-289.717-179.824 72.429-217.288 262.244-222.283 289.717v169.834c77.424 7.493 154.849 32.468 222.283 74.927 67.434-39.961 142.361-67.434 222.283-74.927v-169.834zM609.405 323.122c-7.493 7.493-17.483 7.493-24.976 0s-7.493-17.483 0-24.976l67.434-67.434c2.498-2.498 7.493-4.995 12.488-4.995v0c4.995 0 9.99 2.498 12.488 4.995l152.351 187.317c4.995 7.493 4.995 17.483-2.498 24.976-7.493 4.995-17.483 4.995-24.976-2.498l-142.361-172.332-49.951 54.946z" />
<glyph unicode="&#xe91b;" glyph-name="star" horiz-adv-x="1078" d="M539.186 110.442l-333.027-174.442 63.434 369.274-269.593 262.796 371.54 54.372 167.646 337.558 165.381-337.558 373.805-54.372-269.593-262.796 63.434-369.274z" />
<glyph unicode="&#xe91c;" glyph-name="telephone" horiz-adv-x="1030" d="M970.419 715.907v0l-142.884 142.884c-17.86 17.86-53.581 17.86-71.442 0l-142.884-142.884c-17.86-17.86-17.86-53.581 0-71.442 0 0 0 0 0 0v0l89.302-101.209c17.86-17.86 17.86-53.581 0-71.442 0 0 0 0 0 0v0l-220.279-220.279c-17.86-17.86-53.581-17.86-71.442 0l-95.256 95.256c-17.86 17.86-53.581 17.86-71.442 0 0 0 0 0 0 0v0l-142.884-142.884c-17.86-17.86-17.86-53.581 0-71.442l142.884-142.884c71.442-71.442 190.512-71.442 267.907 0l458.419 458.419c77.395 77.395 77.395 196.465 0 267.907zM631.070 668.279c-5.953 5.953-5.953 17.86 0 23.814l142.884 142.884c5.953 5.953 17.86 5.953 23.814 0l11.907-11.907-166.698-172.651-11.907 17.86zM125.023 156.279c-5.953 5.953-5.953 17.86 0 23.814l142.884 142.884c5.953 5.953 17.86 5.953 23.814 0v0l11.907-11.907-166.698-172.651-11.907 17.86zM946.605 471.814v0l-458.419-458.419c-59.535-59.535-160.744-59.535-220.279 0l-107.163 107.163 172.651 172.651 59.535-59.535c35.721-35.721 89.302-35.721 119.070 0l220.279 220.279c35.721 35.721 35.721 89.302 0 119.070l-59.535 59.535 172.651 172.651 107.163-107.163c53.581-65.488 53.581-166.698-5.953-226.233zM351.256 942.14c-136.93 53.581-285.767-11.907-333.395-148.837s17.86-279.814 148.837-333.395c89.302-35.721 190.512-17.86 261.953 47.628l41.674-41.674c5.953-5.953 17.86-5.953 23.814 0s5.953 5.953 5.953 11.907v130.977c47.628 136.93-17.86 285.767-148.837 333.395 0 0 0 0 0 0zM464.372 620.651c0 0 0-5.953 0-5.953v-95.256l-23.814 23.814c-5.953 11.907-17.86 11.907-23.814 0-89.302-83.349-232.186-83.349-321.488 0s-89.302 232.186 0 315.535 232.186 89.302 315.535 0c65.488-59.535 83.349-154.791 53.581-238.14v0zM416.744 793.302c-35.721 35.721-89.302 35.721-119.070 0l-41.674-35.721-35.721 35.721c-35.721 35.721-89.302 35.721-119.070 0s-35.721-89.302 0-119.070l142.884-142.884c5.953-5.953 5.953-5.953 11.907-5.953 0 0 0 0 0 0s0 0 0 0c5.953 0 5.953 0 11.907 5.953l148.837 142.884c35.721 35.721 35.721 89.302 0 119.070 0 0 0 0 0 0zM392.93 698.047l-136.93-136.93-136.93 136.93c-17.86 17.86-17.86 53.581 0 71.442s53.581 17.86 71.442 0v0l53.581-47.628c5.953-5.953 17.86-5.953 23.814 0l53.581 53.581c17.86 17.86 53.581 17.86 71.442 0 17.86-23.814 17.86-59.535 0-77.395v0z" />
<glyph unicode="&#xe91d;" glyph-name="viber" horiz-adv-x="993" d="M848.162 810.020c-191.354 201.697-506.828 201.697-703.354 0-186.182-191.354-196.525-501.657-20.687-703.354l5.172-5.172c-20.687-41.374-51.717-93.091-103.434-118.949-15.515-10.343-15.515-36.202 5.172-36.202 56.889-10.343 134.465 0 212.040 56.889v0c191.354-113.778 439.596-87.919 605.091 77.576 196.525 206.869 196.525 527.515 0 729.212zM661.98 230.788c-10.343-10.343-20.687-20.687-31.030-36.202-15.515-15.515-36.202-20.687-56.889-20.687-31.030 0-62.061 10.343-87.919 25.859-62.061 31.030-113.778 72.404-160.323 129.293-31.030 41.374-62.061 82.747-77.576 134.465-10.343 20.687-15.515 46.545-15.515 72.404 0 15.515 5.172 31.030 20.687 41.374 10.343 10.343 25.859 25.859 36.202 36.202 15.515 15.515 36.202 15.515 51.717 0 10.343-10.343 20.687-20.687 31.030-31.030s20.687-20.687 25.859-31.030c15.515-15.515 15.515-31.030 0-51.717-10.343-10.343-25.859-25.859-36.202-36.202-5.172 0-5.172-5.172 0-10.343 10.343-20.687 20.687-36.202 31.030-51.717 25.859-31.030 56.889-62.061 87.919-82.747 5.172-5.172 15.515-10.343 25.859-10.343 5.172 0 5.172 0 10.343 0 10.343 10.343 25.859 25.859 36.202 36.202 15.515 15.515 36.202 15.515 51.717 0 20.687-20.687 36.202-41.374 56.889-62.061 15.515-15.515 15.515-36.202 0-51.717zM475.798 561.778l5.172 46.545c46.545-10.343 82.747-31.030 113.778-62.061s46.545-67.232 56.889-108.606l-46.545-10.343c-5.172 31.030-20.687 62.061-41.374 82.747-20.687 31.030-51.717 46.545-87.919 51.717zM724.040 437.657c-10.343 62.061-36.202 113.778-77.576 155.152-41.374 46.545-98.263 72.404-160.323 82.747l5.172 46.545c72.404-10.343 134.465-41.374 186.182-93.091 46.545-51.717 77.576-113.778 93.091-181.010l-46.545-10.343z" />
<glyph unicode="&#xe91e;" glyph-name="whatsapp" d="M747.069 367.497l-90.164 45.082c-19.321 12.881-45.082 6.44-64.403-12.881l-32.201-32.201c-64.403 12.881-115.925 64.403-128.805 128.805l38.642 38.642c19.321 19.321 19.321 38.642 12.881 64.403l-57.962 90.164c-6.44 12.881-25.761 25.761-45.082 25.761h-25.761c-19.321 0-45.082-6.44-57.962-25.761l-12.881-12.881c-25.761-25.761-38.642-64.403-32.201-96.604v-32.201h6.44c25.761-193.208 186.767-347.774 386.415-360.654 6.44 0 6.44 0 12.881 0 38.642 0 70.843 12.881 96.604 38.642l12.881 12.881c12.881 12.881 19.321 32.201 19.321 51.522v25.761c-6.44 19.321-19.321 38.642-38.642 51.522zM714.868 283.774l-12.881-12.881c-19.321-19.321-38.642-25.761-57.962-19.321-173.887 12.881-315.572 154.566-328.453 328.453v6.44c0 19.321 6.44 32.201 19.321 45.082l12.881 12.881c0 0 6.44 6.44 6.44 6.44h19.321l38.642-77.283-32.201-38.642c-12.881-12.881-19.321-25.761-19.321-45.082 19.321-96.604 90.164-167.447 186.767-186.767 19.321-6.44 38.642 0 45.082 12.881l32.201 32.201 77.283-38.642 12.881-25.761zM953.157 708.83c-70.843 115.925-180.327 199.648-315.572 238.289-135.245 32.201-270.491 12.881-386.415-57.962-238.289-141.686-322.013-450.818-186.767-689.107l-51.522-186.767c-6.44-19.321 0-38.642 12.881-51.522s32.201-19.321 51.522-12.881l186.767 51.522c77.283-45.082 161.006-64.403 251.17-64.403s180.327 25.761 257.61 70.843c115.925 70.843 199.648 180.327 231.849 315.572s12.881 270.491-51.522 386.415zM946.717 335.296c-32.201-115.925-103.044-212.528-206.088-270.491-141.686-83.723-315.572-83.723-457.258 0l-12.881 6.44-45.082-12.881-148.126-38.642 57.962 193.208-6.44 6.44c-128.805 212.528-57.962 489.459 154.566 611.824 103.044 64.403 225.409 77.283 334.893 51.522 115.925-32.201 212.528-103.044 270.491-206.088s83.723-225.409 57.962-341.333z" />
<glyph unicode="&#xe91f;" glyph-name="logo" horiz-adv-x="1336" d="M1006.191 634.991c0 0 4.452 0 4.452 0 102.4 17.809 160.278 44.522 178.087 66.783 35.617 40.070 80.139 204.8 26.713 249.322-57.878 44.522-414.052-97.948-498.643-138.017-8.904 0-13.357 4.452-22.261 4.452h-93.496c-8.904 0-17.809 0-22.261-4.452-57.878 22.261-454.122 173.635-485.287 124.661 0 0-4.452-178.087-4.452-191.443 0-22.261 4.452-40.070 13.357-53.426 0 0 0 0 0 0 8.904-8.904 17.809-13.357 31.165-13.357 71.235-22.261 231.513-22.261 231.513-22.261-178.087-155.826-351.722-471.93-365.078-667.826l169.183 80.139 115.757-133.565c66.783 427.409 240.417 690.087 289.391 752.417 8.904-4.452 17.809-4.452 26.713-4.452h93.496c13.357 0 22.261 4.452 31.165 4.452 84.591-146.922 391.791-658.922 431.861-712.348 0 0 22.261 115.757 17.809 133.565 0 0 129.113-35.617 155.826-35.617 4.452 4.452-209.252 458.574-325.009 560.974z" />
<glyph unicode="&#xe920;" glyph-name="whatsapp-black" d="M871.844 811.297c-96.195 95.836-224.164 148.648-360.359 148.703-135.891 0-264.063-52.766-360.891-148.578-97-95.977-150.469-223.523-150.594-358.68v-0.25c0.016-81.805 21.508-164.328 62.305-239.656l-60.906-276.836 280.023 63.695c70.922-35.742 150.055-54.586 229.867-54.617h0.203c135.867 0 264.039 52.773 360.883 148.594 97.086 96.055 150.578 223.438 150.641 358.68 0.039 134.289-53.641 261.766-151.172 358.945zM511.484 25h-0.18c-71.664 0.031-142.672 18.023-205.336 52.047l-13.242 7.188-186.203-42.352 40.445 183.813-7.797 13.445c-38.766 66.852-59.25 140.648-59.25 213.438 0.148 235.602 193.727 427.5 431.547 427.5 114.891-0.047 222.844-44.586 303.969-125.398 82.352-82.063 127.688-189.422 127.648-302.305-0.094-235.656-193.711-427.375-431.602-427.375zM372.305 676.273h-22.422c-7.805 0-20.477-2.922-31.195-14.586-10.727-11.672-40.953-39.883-40.953-97.258s41.93-112.813 47.773-120.602c5.852-7.781 80.938-129.281 199.859-176.023 98.836-38.844 118.953-31.117 140.398-29.172 21.453 1.938 69.227 28.203 78.977 55.43s9.75 50.57 6.828 55.445c-2.93 4.859-10.734 7.773-22.43 13.602-11.703 5.836-69.047 34.523-79.773 38.422-10.727 3.883-18.523 5.828-26.328-5.852-7.805-11.656-30.781-38.625-37.609-46.406-6.82-7.789-13.648-8.766-25.352-2.93-11.703 5.852-49 18.383-93.695 58.102-34.789 30.914-58.93 70.336-65.758 82.008-6.82 11.664-0.727 17.977 5.141 23.797 5.258 5.219 12.359 12.359 18.211 19.164 5.844 6.813 7.508 11.672 11.414 19.453 3.898 7.781 1.945 14.594-0.977 20.422-2.93 5.836-25.383 63.5-35.789 86.563h0.008c-8.766 19.422-17.992 20.078-26.328 20.422z" />
<glyph unicode="&#xe921;" glyph-name="long-arrow-left" horiz-adv-x="1371" d="M1326.748 407.307h-1282.226c-26.713 0-44.522 17.809-44.522 44.522s17.809 44.522 44.522 44.522h1282.226c26.713 0 44.522-17.809 44.522-44.522s-17.809-44.522-44.522-44.522zM516.452-64.623c-8.904 0-26.713 0-35.617 8.904l-471.93 471.93c-17.809 17.809-17.809 44.522 0 62.33l471.93 471.93c17.809 17.809 44.522 17.809 62.33 0s17.809-44.522 0-62.33l-436.313-436.313 436.313-436.313c17.809-17.809 17.809-44.522 0-62.33-8.904-17.809-17.809-17.809-26.713-17.809z" />
<glyph unicode="&#xe922;" glyph-name="back-top-top" horiz-adv-x="682" d="M669.879 588.173c-17.706-17.706-47.216-17.706-64.922 0l-215.424 215.424v-820.38c0-26.559-20.657-47.216-47.216-47.216s-47.216 20.657-47.216 47.216v820.38l-215.424-215.424c-17.706-17.706-47.216-17.706-64.922 0s-17.706 47.216 0 64.922l295.101 292.15c2.951 2.951 8.853 5.902 14.755 8.853 2.951 5.902 8.853 5.902 14.755 5.902 11.804 0 23.608-5.902 32.461-11.804l295.101-292.15c20.657-17.706 20.657-47.216 2.951-67.873 0 2.951 0 0 0 0z" />
<glyph unicode="&#xe923;" glyph-name="long-arrow-right" horiz-adv-x="1371" d="M42.161 490.295h1282.226c26.713 0 44.522-17.809 44.522-44.522s-17.809-44.522-44.522-44.522h-1282.226c-26.713 0-44.522 17.809-44.522 44.522s17.809 44.522 44.522 44.522zM852.457 962.225c8.904 0 26.713 0 35.617-8.904l471.93-471.93c17.809-17.809 17.809-44.522 0-62.33l-471.93-471.93c-17.809-17.809-44.522-17.809-62.33 0s-17.809 44.522 0 62.33l436.313 436.313-436.313 436.313c-17.809 17.809-17.809 44.522 0 62.33 8.904 17.809 17.809 17.809 26.713 17.809z" />
<glyph unicode="&#xe924;" glyph-name="user" d="M876.023 308.902c-53.272 53.272-112.462 88.786-177.572 118.382 59.191 47.353 100.624 106.543 112.462 183.491s0 159.815-47.353 224.925-112.462 112.462-189.41 124.301c-76.948 11.838-159.815 0-224.925-47.353-71.029-53.272-118.382-118.382-130.22-195.329s0-159.815 47.353-224.925c17.757-23.676 41.434-47.353 65.11-65.11-201.249-82.867-331.468-272.277-331.468-485.364v-11.838h94.705v11.838c0 230.844 189.41 414.335 414.335 414.335 230.844 0 414.335-189.41 414.335-414.335v-11.838h94.705v11.838c5.919 136.139-47.353 272.277-142.058 366.983zM716.208 658.127c0-112.462-88.786-201.249-201.249-201.249s-207.168 88.786-207.168 201.249 88.786 201.249 201.249 201.249c112.462 5.919 207.168-88.786 207.168-201.249z" />
<glyph unicode="&#xe925;" glyph-name="facebook-alt" horiz-adv-x="549" d="M513.784 381.993l28.544 185.533h-178.397v121.31c-3.568 49.951 32.111 96.334 85.631 99.902 7.136 0 14.272 0 21.408 0h82.063v156.99c-46.383 7.136-96.334 10.704-142.718 14.272-149.854 0-246.188-89.199-246.188-249.756v-142.718h-164.125v-185.533h164.125v-449.561h199.805v449.561h149.854z" />
<glyph unicode="&#xe926;" glyph-name="instagram-alt" d="M513.962 708.904c-145.165 0-262.866-117.701-262.866-262.866s117.701-262.866 262.866-262.866 262.866 117.701 262.866 262.866c0 145.165-117.701 262.866-262.866 262.866 0 0 0 0 0 0zM513.962 277.333c-94.161 0-172.628 78.467-172.628 172.628s78.467 172.628 172.628 172.628 172.628-78.467 172.628-172.628v0c-3.923-98.084-78.467-172.628-172.628-172.628zM847.448 720.674c0-35.31-27.464-62.774-62.774-62.774s-62.774 27.464-62.774 62.774 27.464 62.774 62.774 62.774v0c35.31 0 62.774-27.464 62.774-62.774 0 0 0 0 0 0zM1024 657.9c0 78.467-27.464 156.935-82.391 215.785-58.851 54.927-133.395 82.391-215.785 82.391-86.314 3.923-341.333 3.923-423.724 0-78.467 0-156.935-27.464-215.785-82.391-54.927-58.851-82.391-133.395-82.391-215.785-3.923-82.391-3.923-337.41 0-423.724 0-78.467 27.464-156.935 82.391-215.785 58.851-54.927 133.395-82.391 215.785-82.391 86.314-3.923 337.41-3.923 423.724 0 78.467 0 156.935 27.464 215.785 82.391 54.927 58.851 82.391 133.395 82.391 215.785 3.923 86.314 3.923 341.333 0 423.724v0zM914.146 143.939c-15.693-43.157-51.004-78.467-98.084-98.084-66.697-27.464-227.556-19.617-302.1-19.617s-235.402-7.847-302.1 19.617c-43.157 15.693-78.467 51.004-98.084 98.084-27.464 66.697-19.617 227.556-19.617 302.1s-7.847 235.402 19.617 302.1c15.693 43.157 51.004 78.467 98.084 98.084 66.697 27.464 227.556 19.617 302.1 19.617s235.402 7.847 302.1-19.617c43.157-15.693 78.467-51.004 98.084-98.084 27.464-66.697 19.617-227.556 19.617-302.1s3.923-235.402-19.617-302.1v0z" />
<glyph unicode="&#xe927;" glyph-name="location-alt" horiz-adv-x="852" d="M425.854-64c-6.502 0-13.003 3.251-19.505 6.502-16.254 9.752-406.349 273.067-406.349 591.644 0 234.057 191.797 425.854 425.854 425.854 0 0 0 0 0 0 234.057 0 425.854-191.797 425.854-425.854v0c0-318.578-390.095-581.892-406.349-594.895-6.502-3.251-13.003-3.251-19.505-3.251zM425.854 894.984c-97.524 0-185.295-39.010-253.562-104.025-68.267-68.267-107.276-159.289-107.276-256.813 0-247.060 286.070-471.365 360.838-526.629 74.768 55.263 360.838 279.568 360.838 526.629 0 198.298-162.54 360.838-360.838 360.838 0 0 0 0 0 0zM429.105 352.102c-120.279 0-217.803 97.524-217.803 217.803s97.524 217.803 217.803 217.803c120.279 0 217.803-97.524 217.803-217.803s-97.524-217.803-217.803-217.803zM429.105 722.692c-84.521 0-152.787-68.267-152.787-152.787s68.267-152.787 152.787-152.787c84.521 0 152.787 68.267 152.787 152.787s-68.267 152.787-152.787 152.787z" />
<glyph unicode="&#xe928;" glyph-name="mail-alt" horiz-adv-x="1254" d="M1087.694-64h-921.11c-88.191 0-166.584 73.493-166.584 166.584v690.833c0 93.091 73.493 166.584 166.584 166.584 0 0 0 0 0 0h926.010c88.191 0 166.584-73.493 166.584-166.584v-690.833c-4.9-93.091-78.392-166.584-171.483-166.584zM166.584 862.010c-39.196 0-68.593-29.397-68.593-68.593v-690.833c0-34.297 29.397-68.593 68.593-68.593h926.010c34.297 0 68.593 29.397 68.593 68.593v690.833c-4.9 39.196-34.297 68.593-73.493 68.593h-921.11zM627.139 342.66c-9.799 0-19.598 4.9-29.397 9.799l-578.144 401.761c-19.598 14.699-24.498 48.995-9.799 68.593 14.699 24.498 44.096 29.397 68.593 9.799l548.746-387.062 548.746 391.962c24.498 14.699 53.895 9.799 68.593-9.799 14.699-24.498 9.799-53.895-9.799-68.593l-578.144-406.66c-9.799-9.799-19.598-9.799-29.397-9.799z" />
<glyph unicode="&#xe929;" glyph-name="phone-alt" horiz-adv-x="1020" d="M886.959-64c-3.807 0-7.613 0-11.42 0-152.268 15.227-300.729 68.52-426.349 152.268-118.007 76.134-220.788 178.914-296.922 296.922-83.747 129.428-137.041 277.888-152.268 430.156-3.807 34.26 7.613 68.52 30.454 95.167 22.84 30.454 57.1 45.68 91.361 49.487 3.807 0 7.613 0 11.42 0h140.848c64.714 0 121.814-49.487 133.234-114.201 3.807-41.874 15.227-83.747 30.454-125.621 19.033-49.487 7.613-102.781-26.647-140.848l-38.067-38.067c57.1-95.167 137.041-171.301 232.208-232.208l38.067 38.067c38.067 38.067 91.361 49.487 140.848 30.454 41.874-15.227 83.747-26.647 125.621-30.454 68.52-11.42 114.201-68.52 114.201-133.234v-140.848c-3.807-76.134-60.907-137.041-137.041-137.041zM277.888 883.866c0 0-3.807 0 0 0h-144.654c0 0-3.807 0-3.807 0-15.227 0-30.454-7.613-41.874-19.033s-11.42-26.647-11.42-41.874c15.227-140.848 64.714-277.888 140.848-395.896 68.52-110.394 163.688-205.561 274.082-274.082 118.007-76.134 255.048-125.621 392.089-140.848 0 0 3.807 0 3.807 0 30.454 0 57.1 26.647 57.1 57.1v140.848c0 0 0 0 0 0 0 30.454-19.033 53.294-49.487 57.1-49.487 7.613-95.167 19.033-140.848 34.26-19.033 7.613-45.68 3.807-60.907-11.42l-60.907-60.907c-11.42-11.42-30.454-15.227-45.68-7.613-125.621 72.327-228.401 175.108-300.729 300.729-7.613 15.227-7.613 34.26 7.613 45.68l60.907 60.907c15.227 15.227 19.033 38.067 11.42 60.907-15.227 49.487-26.647 98.974-34.26 144.654-3.807 26.647-26.647 49.487-53.294 49.487z" />
<glyph unicode="&#xe92a;" glyph-name="zoom-in" horiz-adv-x="958" d="M945.977-6.457l-294.348 306.785c153.393 149.247 157.538 389.7 8.291 543.093s-389.7 157.538-543.093 8.291-157.538-389.7-8.291-543.093c128.518-132.664 335.806-157.538 489.198-49.749l298.494-310.931c12.437-12.437 33.166-16.583 49.749-4.146 12.437 12.437 12.437 33.166 0 49.749 0 0 0 0 0 0zM67.078 578.094c0 174.121 140.955 319.223 319.223 319.223s319.223-140.955 319.223-319.223-140.955-319.223-319.223-319.223v0c-178.267 0-319.223 140.955-319.223 319.223zM556.277 611.26h-136.81v136.81c0 20.729-16.583 37.312-37.312 37.312-16.583 0-33.166-16.583-33.166-37.312v-136.81h-136.81c-20.729 0-33.166-16.583-33.166-33.166 0-20.729 16.583-33.166 33.166-33.166h136.81v-136.81c0-20.729 16.583-33.166 33.166-33.166 20.729 0 33.166 16.583 33.166 33.166v136.81h136.81c20.729 0 33.166 16.583 33.166 33.166 4.146 16.583-8.291 33.166-29.020 33.166v0z" />
<glyph unicode="&#xe92b;" glyph-name="email-vibez" horiz-adv-x="1362" d="M1255.513 960h-1139.757c-62.33 0-115.757-53.426-115.757-115.757v-792.487c0-62.33 53.426-115.757 115.757-115.757h1139.757c62.33 0 115.757 53.426 115.757 115.757v792.487c-8.904 62.33-53.426 115.757-115.757 115.757zM115.757 906.574h1139.757c0 0 8.904 0 8.904 0-97.948-89.043-427.409-391.791-543.165-489.739-17.809-26.713-62.33-26.713-80.139 0 0 0 0 0 0 0-115.757 97.948-436.313 391.791-543.165 480.835 8.904 0 8.904 8.904 17.809 8.904zM53.426 51.757v792.487c0 8.904 0 8.904 0 17.809 71.235-71.235 302.748-276.035 454.122-409.6-151.374-124.661-373.983-338.365-454.122-418.504 8.904 8.904 0 8.904 0 17.809zM1255.513-10.574h-1139.757c0 0-8.904 0-8.904 0 71.235 80.139 302.748 293.843 445.217 418.504l53.426-44.522c44.522-44.522 115.757-44.522 160.278 0l53.426 44.522c142.47-124.661 373.983-338.365 454.122-418.504-8.904 8.904-17.809 0-17.809 0zM1308.939 51.757c0-8.904 0-8.904 0-17.809-80.139 71.235-302.748 284.939-454.122 418.504 151.374 133.565 373.983 338.365 454.122 409.6 0-8.904 0-8.904 0-17.809v-792.487z" />
<glyph unicode="&#xe92c;" glyph-name="instagram-vibez" d="M746.845 960h-469.616c-153.042-0.168-277.061-124.187-277.229-277.212v-469.632c0.21-153.010 124.213-276.988 277.213-277.155h469.632c152.984 0.209 276.945 124.171 277.155 277.135v469.636c-0.168 153.016-124.145 277.019-277.135 277.229h-0.020zM963.999 213.155c-0.126-119.88-97.274-217.028-217.142-217.154h-469.628c-119.912 0.084-217.102 97.248-217.228 217.142v469.628c0.084 119.938 97.29 217.144 217.219 217.228h469.624c119.88-0.126 217.028-97.274 217.154-217.142v-0.012zM511.853 728.251c-154.697 0-280.104-125.407-280.104-280.104s125.407-280.104 280.104-280.104c154.697 0 280.104 125.407 280.104 280.104v0c0 154.697-125.407 280.104-280.104 280.104v0zM511.853 228.266c-121.478 0-219.955 98.477-219.955 219.955s98.477 219.955 219.955 219.955c121.478 0 219.955-98.477 219.955-219.955v0c0 0 0 0 0 0 0-121.537-98.441-220.082-219.939-220.25h-0.016zM798.811 827.467c-45.645-0.042-82.631-37.054-82.631-82.704 0-45.676 37.028-82.704 82.704-82.704s82.704 37.028 82.704 82.704v0c-0.084 45.668-37.104 82.662-82.774 82.704h-0.004zM798.811 722.059c-12.539 0-22.703 10.165-22.703 22.703s10.165 22.703 22.703 22.703c12.539 0 22.703-10.165 22.703-22.703v0c0-0.022 0-0.048 0-0.074 0-12.539-10.165-22.703-22.703-22.703 0 0 0 0 0 0v0z" />
<glyph unicode="&#xe92d;" glyph-name="whatsapp-vibez" d="M956.185 709.086c-142.411 244.132-461.139 325.51-705.272 176.318-115.285-67.815-203.444-183.099-237.351-311.947-27.126-128.848-13.563-264.477 54.252-379.762l-54.252-189.881c0-6.781 0-20.344 0-27.126 6.781-27.126 33.907-40.689 61.033-33.907l189.881 54.252c81.377-40.689 162.755-67.815 250.914-67.815s183.099 27.126 264.477 74.596c237.351 142.411 318.728 461.139 176.318 705.272zM745.96 51.285c-142.411-88.159-325.51-88.159-467.921 0h-13.563l-67.815-20.344-128.848-33.907 54.252 203.444v13.563c-67.815 101.722-81.377 230.57-54.252 345.854 27.126 122.066 108.503 217.007 210.225 278.040 217.007 128.848 501.828 54.252 630.675-162.755 128.848-210.225 54.252-495.046-162.755-623.894zM278.040 580.238c13.563-196.662 169.536-352.636 366.199-366.199v0c33.907 0 61.033 6.781 81.377 27.126l13.563 13.563c6.781 6.781 13.563 13.563 13.563 27.126v33.907c0 6.781-6.781 13.563-13.563 20.344l-94.94 40.689c-6.781 6.781-20.344 0-27.126-6.781l-33.907-33.907c-6.781-6.781-13.563-6.781-20.344-6.781v0c-81.377 13.563-149.192 81.377-169.536 162.755v0c0 6.781 0 13.563 6.781 20.344l40.689 40.689c6.781 6.781 6.781 13.563 6.781 27.126l-47.47 94.94c-6.781 6.781-13.563 13.563-20.344 13.563h-27.126c-13.563 0-20.344-6.781-33.907-20.344l-13.563-13.563c-20.344-20.344-27.126-47.47-27.126-74.596 0 0 0 0 0 0v0z" />
<glyph unicode="&#xe92e;" glyph-name="mobile" horiz-adv-x="581" d="M505.351 960h-429.991c-44.329 0-75.359-35.463-75.359-75.359v-873.281c0-39.896 31.030-75.359 75.359-75.359h429.991c39.896 0 75.359 35.463 75.359 75.359v873.281c0 39.896-35.463 75.359-75.359 75.359zM181.749 915.671h212.779c4.433 0 8.866-8.866 8.866-17.732s-4.433-17.732-8.866-17.732h-212.779c-4.433 0-8.866 8.866-8.866 17.732s4.433 17.732 8.866 17.732zM288.139 11.359c-26.597 0-48.762 22.165-48.762 48.762s22.165 48.762 48.762 48.762c26.597 0 48.762-22.165 48.762-48.762s-22.165-48.762-48.762-48.762zM523.082 175.377h-465.455v660.502h465.455v-660.502z" />
<glyph unicode="&#xe92f;" glyph-name="facebook-circle" d="M512 960c-283.307 0-512-228.693-512-512s228.693-512 512-512 512 228.693 512 512c0 283.307-228.693 512-512 512zM638.293 430.933h-81.92v-296.96h-122.88v296.96h-58.027v105.813h58.027v68.267c-3.413 64.853 40.96 119.467 105.813 122.88 6.827 0 13.653 0 17.067 0h92.16v-102.4h-64.853c-13.653 0-27.307-10.24-27.307-23.893 0 0 0-3.413 0-3.413v-61.44h92.16l-10.24-105.813z" />
<glyph unicode="&#xe930;" glyph-name="instagram-circle" d="M619.52 448c0-59.382-48.138-107.52-107.52-107.52s-107.52 48.138-107.52 107.52c0 59.382 48.138 107.52 107.52 107.52s107.52-48.138 107.52-107.52zM512 960c-282.829 0-512-229.171-512-512s229.171-512 512-512 512 229.171 512 512-229.171 512-512 512zM828.416 317.952c-2.458-48.742-16.179-96.666-51.61-131.686-35.84-35.43-83.968-48.538-133.12-50.995h-263.168c-49.152 2.458-97.28 15.565-133.12 50.995-35.43 35.021-49.152 83.149-51.61 131.686v260.096c2.458 48.742 16.179 96.666 51.61 131.686 35.84 35.43 83.968 48.538 133.12 50.995h262.963c49.152-2.458 97.28-15.565 133.12-50.995 35.43-35.021 49.152-83.149 51.61-131.686l0.205-260.096zM640.205 701.747c-64.102 1.843-192.307 1.843-256.41 0-33.382-0.819-71.066-9.216-94.822-34.611-24.781-26.419-33.997-58.163-35.021-93.798-1.638-62.669 0-250.47 0-250.47 1.024-35.635 10.24-67.584 35.021-93.798 23.757-25.395 61.645-33.587 94.822-34.611 64.102-1.843 192.307-1.843 256.41 0 33.382 0.819 71.066 9.216 94.822 34.611 24.781 26.419 33.997 58.163 35.021 93.798v250.266c-1.024 35.635-10.24 67.584-35.021 93.798-23.757 25.6-61.44 33.792-94.822 34.816v0zM512 281.293c-91.955 0-166.707 74.547-166.707 166.707s74.547 166.707 166.707 166.707 166.707-74.547 166.707-166.707v0c0-91.955-74.752-166.707-166.707-166.707zM679.322 580.301c-18.432 0-33.382 14.95-33.382 33.382s14.95 33.382 33.382 33.382c18.432 0 33.382-14.95 33.382-33.382s-14.95-33.382-33.382-33.382c0 0 0 0 0 0z" />
<glyph unicode="&#xe931;" glyph-name="cargo-truck" horiz-adv-x="1455" d="M1408.962 505.744l-100.090 38.496-84.692 161.684c-23.098 46.195-69.293 69.293-123.188 69.293h-146.286v46.195c0 76.992-61.594 130.887-130.887 130.887 0 0 0 0 0 0h-692.932c-69.293 7.699-130.887-53.895-130.887-123.188 0 0 0 0 0 0v-631.338c0-46.195 38.496-84.692 76.992-84.692 0 0 0 0 0 0h15.398c0 0 0-7.699 0-7.699 0-92.391 69.293-169.383 161.684-169.383s169.383 69.293 169.383 161.684c0 0 0 7.699 0 7.699v0c0 0 0 7.699 0 7.699h562.045v-7.699c0-92.391 69.293-169.383 161.684-169.383s169.383 69.293 169.383 161.684c0 0 0 7.699 0 7.699v7.699h38.496c46.195 0 84.692 38.496 84.692 84.692v230.977c15.398 30.797 0 61.594-30.797 76.992zM269.474 5.293c-53.895 0-100.090 46.195-100.090 100.090s46.195 100.090 100.090 100.090 100.090-46.195 100.090-100.090c0-30.797-7.699-53.895-30.797-69.293-15.398-23.098-46.195-30.797-69.293-30.797zM893.113 182.376h-469.654c-46.195 76.992-146.286 115.489-223.278 76.992-38.496-15.398-61.594-46.195-84.692-84.692h-30.797c-7.699 0-15.398 7.699-15.398 15.398 0 0 0 0 0 0v177.083h831.519l-7.699-184.782zM893.113 821.414v-392.662h-831.519v392.662c0 38.496 30.797 69.293 69.293 69.293 0 0 0 0 0 0h692.932c38.496 0 69.293-30.797 69.293-69.293v0zM962.406 721.323h146.286c23.098 0 46.195-15.398 61.594-38.496l61.594-123.188h-269.474v161.684zM1162.586 5.293c-53.895 0-100.090 46.195-100.090 100.090s46.195 100.090 100.090 100.090c53.895 0 100.090-46.195 100.090-100.090 0-30.797-7.699-53.895-30.797-69.293-15.398-23.098-38.496-30.797-69.293-30.797zM1393.564 197.774c0-7.699-7.699-15.398-15.398-15.398 0 0 0 0 0 0h-61.594c-38.496 84.692-138.586 123.188-223.278 84.692-38.496-15.398-61.594-46.195-84.692-84.692h-53.895v307.97h315.669l100.090-46.195c7.699 0 7.699-7.699 7.699-15.398l15.398-230.977z" />
<glyph unicode="&#xe932;" glyph-name="payment" horiz-adv-x="1318" d="M866.987 133.973h-744.107c-68.267 0-122.88 54.613-122.88 122.88v587.093c0 68.267 54.613 122.88 122.88 122.88h928.427c68.267 0 122.88-54.613 122.88-122.88v-416.427c0-13.653-13.653-27.307-27.307-27.307s-27.307 13.653-27.307 27.307v416.427c0 40.96-34.133 75.093-75.093 75.093h-921.6c-40.96 0-75.093-34.133-75.093-75.093v0-587.093c0-40.96 34.133-75.093 75.093-75.093h744.107c13.653 0 27.307-13.653 27.307-27.307s-13.653-20.48-27.307-20.48v0zM1146.88 543.573h-1119.573c-13.653 0-27.307 13.653-27.307 27.307v0 143.36c0 13.653 13.653 27.307 27.307 27.307 0 0 0 0 0 0h1119.573c13.653 0 27.307-13.653 27.307-27.307v0-143.36c-6.827-13.653-13.653-27.307-27.307-27.307v0zM47.787 591.36h1071.787v95.573h-1071.787v-95.573zM853.333 400.213h-95.573c-13.653 0-27.307 13.653-27.307 27.307s13.653 27.307 27.307 27.307v0h95.573c13.653 0 27.307-13.653 27.307-27.307 0-20.48-13.653-27.307-27.307-27.307zM655.36 400.213h-95.573c-13.653 0-27.307 13.653-27.307 27.307s13.653 27.307 27.307 27.307h95.573c13.653 0 27.307-13.653 27.307-27.307 0-20.48-13.653-27.307-27.307-27.307zM464.213 250.027h-293.547c-13.653 0-27.307 13.653-27.307 27.307v143.36c0 13.653 13.653 27.307 27.307 27.307h293.547c13.653 0 27.307-13.653 27.307-27.307v-143.36c-6.827-13.653-13.653-27.307-27.307-27.307zM197.973 304.64h245.76v95.573h-245.76v-95.573zM1071.787-64c0 0 0 0 0 0-143.36 34.133-238.933 157.013-245.76 300.373v163.84c0 13.653 13.653 27.307 20.48 27.307 75.093 0 143.36 20.48 211.627 47.787 6.827 0 13.653 0 20.48 0 68.267-27.307 136.533-40.96 211.627-47.787 13.653 0 27.307-13.653 27.307-27.307v-163.84c0-143.36-102.4-266.24-245.76-300.373 6.827 0 0 0 0 0zM880.64 379.733v-143.36c0-116.053 81.92-218.453 197.973-252.587 116.053 27.307 191.147 129.707 197.973 252.587v143.36c-68.267 6.827-129.707 20.48-197.973 40.96-68.267-20.48-136.533-40.96-197.973-40.96zM1051.307 133.973c-6.827 0-6.827 0-13.653 6.827l-75.093 47.787c-13.653 6.827-13.653 20.48-6.827 34.133s20.48 13.653 34.133 6.827v0l54.613-40.96 122.88 122.88c6.827 6.827 27.307 6.827 34.133 0s6.827-27.307 0-34.133v0l-136.533-136.533c-6.827-6.827-6.827-6.827-13.653-6.827z" />
<glyph unicode="&#xe933;" glyph-name="tag" d="M862.316 771.368c0-14.883-12.065-26.947-26.947-26.947s-26.947 12.065-26.947 26.947c0 14.883 12.065 26.947 26.947 26.947s26.947-12.065 26.947-26.947zM929.684 960h-357.053c-26.947 0-47.158-6.737-67.368-26.947l-478.316-478.316c-33.684-33.684-33.684-94.316 0-134.737 0 0 0 0 0 0l357.053-357.053c33.684-33.684 94.316-33.684 134.737 0 0 0 0 0 0 0l478.316 478.316c20.211 20.211 26.947 40.421 26.947 67.368v357.053c0 53.895-40.421 94.316-94.316 94.316v0zM963.368 508.632c0-6.737-6.737-20.211-6.737-26.947l-478.316-478.316c-13.474-13.474-33.684-13.474-47.158 0 0 0 0 0 0 0l-363.789 363.789c-13.474 13.474-13.474 33.684 0 47.158 0 0 0 0 0 0l478.316 478.316c6.737 6.737 13.474 13.474 26.947 6.737h357.053c20.211 0 33.684-13.474 33.684-33.684v-357.053zM512 535.579c53.895 0 94.316 40.421 94.316 94.316s-40.421 94.316-94.316 94.316c-53.895 0-94.316-40.421-94.316-94.316 0 0 0 0 0 0 0-53.895 40.421-94.316 94.316-94.316zM512 663.579c20.211 0 33.684-13.474 33.684-33.684s-13.474-33.684-33.684-33.684-33.684 13.474-33.684 33.684c0 20.211 13.474 33.684 33.684 33.684zM512 360.421c-53.895 0-94.316-40.421-94.316-94.316s40.421-94.316 94.316-94.316c53.895 0 94.316 40.421 94.316 94.316v0c0 53.895-40.421 94.316-94.316 94.316zM512 232.421c-20.211 0-33.684 13.474-33.684 33.684s13.474 33.684 33.684 33.684 33.684-13.474 33.684-33.684c0-20.211-13.474-33.684-33.684-33.684zM707.368 474.947h-390.737c-13.474 0-33.684-13.474-33.684-26.947s13.474-33.684 26.947-33.684c0 0 0 0 0 0h384c13.474 0 26.947 13.474 26.947 33.684 13.474 13.474 0 26.947-13.474 26.947z" />
<glyph unicode="&#xe934;" glyph-name="guide-book" horiz-adv-x="754" d="M748.072 788.311l-171.689 165.557c-6.132 6.132-12.263 6.132-18.395 6.132h-502.802c-30.659 0-55.186-24.527-55.186-55.186v-913.629c0-30.659 24.527-55.186 55.186-55.186h643.832c30.659 0 55.186 24.527 55.186 55.186v778.731c0 6.132 0 12.263-6.132 18.395zM582.515 800.575v79.713l91.976-91.976h-79.713c-6.132 0-12.263 6.132-12.263 12.263zM42.922-21.078c0 0 0 0 0 0s0 0 0 0zM42.922-14.946v913.629c0 6.132 6.132 12.263 12.263 12.263h484.407v-110.371c0-30.659 24.527-55.186 55.186-55.186h116.503v-754.204c0-12.263-6.132-18.395-18.395-18.395h-637.701c-6.132 0-12.263 6.132-12.263 12.263zM171.689 506.251c-30.659 0-55.186-24.527-55.186-55.186s24.527-55.186 55.186-55.186 55.186 24.527 55.186 55.186-24.527 55.186-55.186 55.186zM171.689 457.198c6.132 0 12.263 0 12.263-6.132s-6.132-12.263-12.263-12.263c-6.132 0-12.263 0-12.263 6.132s6.132 12.263 12.263 12.263zM159.425 463.329c0 0 0 0 0 0s0 0 0 0zM282.060 469.461h349.509v-42.922h-349.509v42.922zM171.689 671.808c-30.659 0-55.186-24.527-55.186-55.186s24.527-55.186 55.186-55.186 55.186 24.527 55.186 55.186-24.527 55.186-55.186 55.186zM171.689 622.754c6.132 0 12.263 0 12.263-6.132s-6.132-12.263-12.263-12.263c-6.132 0-12.263 0-12.263 6.132s6.132 12.263 12.263 12.263zM159.425 635.018c0-6.132 0-6.132 0 0 0-6.132 0-6.132 0 0zM282.060 641.15h349.509v-49.054h-349.509v49.054zM171.689 334.563c-30.659 0-55.186-24.527-55.186-55.186s24.527-55.186 55.186-55.186 55.186 24.527 55.186 55.186-24.527 55.186-55.186 55.186zM171.689 291.641c6.132 0 12.263-6.132 12.263-12.263s-6.132-12.263-12.263-12.263c-6.132 0-6.132 6.132-12.263 12.263 0 6.132 6.132 12.263 12.263 12.263zM159.425 297.772c0-6.132 0-6.132 0 0 0-6.132 0-6.132 0 0zM282.060 303.904h349.509v-49.054h-349.509v49.054zM171.689 169.006c-30.659 0-55.186-24.527-55.186-55.186s24.527-55.186 55.186-55.186 55.186 24.527 55.186 55.186-24.527 55.186-55.186 55.186zM171.689 126.084c6.132 0 12.263-6.132 12.263-12.263s-6.132-12.263-12.263-12.263c-6.132 0-6.132 6.132-12.263 12.263 0 6.132 6.132 12.263 12.263 12.263zM159.425 126.084c0 0 0 0 0 0s0 0 0 0zM282.060 132.216h349.509v-42.922h-349.509v42.922z" />
<glyph unicode="&#xe935;" glyph-name="minus-thin" horiz-adv-x="963" d="M0 512.474h963.319v-106.193h-963.319v106.193z" />
<glyph unicode="&#xe936;" glyph-name="plus-thin" horiz-adv-x="963" d="M963.319 406.281h-963.319v106.193h963.319v-106.193zM530.963-64h-113.778v1024h113.778v-1024z" />
<glyph unicode="&#xe937;" glyph-name="filter" horiz-adv-x="1126" d="M1093.12 686.023h-1058.133c-17.067 0-34.133 17.067-34.133 34.133s17.067 34.133 34.133 34.133h1058.133c17.067 0 34.133-17.067 34.133-34.133s-17.067-34.133-34.133-34.133zM1093.12 145.579h-1058.133c-17.067 0-34.133 17.067-34.133 34.133s17.067 34.133 34.133 34.133h1058.133c17.067 0 34.133-17.067 34.133-34.133s-17.067-34.133-34.133-34.133zM325.12 475.534c-17.067 0-34.133 17.067-34.133 34.133v415.289c0 17.067 17.067 34.133 34.133 34.133s34.133-17.067 34.133-34.133v-415.289c0-17.067-17.067-34.133-34.133-34.133zM814.364-64.91c-17.067 0-34.133 17.067-34.133 34.133v415.289c0 17.067 17.067 34.133 34.133 34.133s34.133-17.067 34.133-34.133v-415.289c0-17.067-11.378-34.133-34.133-34.133z" />
<glyph unicode="&#xe938;" glyph-name="edit-alt" horiz-adv-x="1075" d="M1024-62.074h-486.653c-30.416 0-50.693 20.277-50.693 50.693s20.277 50.693 50.693 50.693h486.653c30.416 0 50.693-20.277 50.693-50.693s-20.277-50.693-50.693-50.693zM50.693-62.074c-10.139 0-30.416 10.139-40.554 10.139-10.139 10.139-10.139 30.416-10.139 50.693l50.693 212.911c0 10.139 10.139 20.277 10.139 20.277l679.287 679.287c60.832 60.832 172.356 60.832 233.188 0 30.416-30.416 50.693-70.97 50.693-121.663s-10.139-81.109-40.554-111.525l-679.287-679.287c-10.139-10.139-10.139-10.139-20.277-10.139l-212.911-50.693c-10.139 0-20.277 0-20.277 0zM152.079 171.114l-30.416-121.663 121.663 30.416 669.149 669.149c10.139 10.139 20.277 30.416 20.277 40.554 0 20.277-10.139 30.416-20.277 40.554-20.277 20.277-70.97 20.277-91.248 0v0l-669.149-659.010zM780.673 880.817v0 0z" />
<glyph unicode="&#xe939;" glyph-name="logout" horiz-adv-x="888" d="M658.286-11.755c0-31.347-20.898-52.245-52.245-52.245h-449.306c-83.592 0-156.735 73.143-156.735 156.735v710.531c0 83.592 73.143 156.735 156.735 156.735h449.306c31.347 0 41.796-20.898 41.796-52.245 0-20.898-20.898-41.796-41.796-41.796h-449.306c-31.347 0-62.694-31.347-62.694-62.694 0 0 0 0 0 0v-700.082c0-31.347 31.347-62.694 62.694-62.694h449.306c31.347-10.449 52.245-31.347 52.245-52.245v0zM877.714 479.347l-229.878 229.878c-20.898 20.898-41.796 20.898-62.694 0s-20.898-41.796-10.449-62.694c0 0 0 0 0 0l156.735-146.286h-376.163c-31.347 0-41.796-20.898-41.796-52.245 0-20.898 20.898-41.796 41.796-41.796h376.163l-146.286-156.735c-20.898-20.898-20.898-52.245 0-73.143s41.796-20.898 62.694 0l229.878 229.878c20.898 31.347 20.898 52.245 0 73.143v0z" />
<glyph unicode="&#xe93a;" glyph-name="trash-alt" horiz-adv-x="929" d="M889.054 690.109h-849.364c-23.814 0-39.69 15.876-39.69 39.69s15.876 39.69 39.69 39.69h849.364c23.814 0 39.69-15.876 39.69-39.69s-15.876-39.69-39.69-39.69zM698.543-64h-468.341c-71.442 0-134.946 63.504-134.946 134.946v658.853c0 23.814 15.876 39.69 39.69 39.69s39.69-15.876 39.69-39.69v-658.853c0-31.752 23.814-55.566 55.566-55.566h468.341c31.752 0 55.566 23.814 55.566 55.566v658.853c0 23.814 15.876 39.69 39.69 39.69s39.69-15.876 39.69-39.69v-658.853c0-71.442-63.504-134.946-134.946-134.946zM650.915 690.109c-23.814 0-39.69 15.876-39.69 39.69v95.256c0 31.752-23.814 55.566-55.566 55.566h-182.574c-31.752 0-55.566-23.814-55.566-55.566v-95.256c0-23.814-15.876-39.69-39.69-39.69s-39.69 15.876-39.69 39.69v95.256c0 71.442 63.504 134.946 134.946 134.946h182.574c71.442 0 134.946-63.504 134.946-134.946v-95.256c0-23.814-15.876-39.69-39.69-39.69zM373.085 174.14c-23.814 0-39.69 15.876-39.69 39.69v285.767c0 23.814 15.876 39.69 39.69 39.69s39.69-15.876 39.69-39.69v-285.767c0-23.814-23.814-39.69-39.69-39.69zM555.659 174.14c-23.814 0-39.69 15.876-39.69 39.69v285.767c0 23.814 15.876 39.69 39.69 39.69s39.69-15.876 39.69-39.69v-285.767c0-23.814-15.876-39.69-39.69-39.69z" />
<glyph unicode="&#xe93b;" glyph-name="map-pin" horiz-adv-x="766" d="M383.079 960c-213.64 0-383.079-169.439-383.079-383.079 0-272.576 360.978-618.82 375.712-633.554 7.367-7.367 14.734-7.367 22.101 0 14.734 14.734 375.712 360.978 375.712 633.554-7.367 213.64-176.806 383.079-390.446 383.079zM383.079 400.115c-95.77 0-176.806 81.036-176.806 176.806s81.036 176.806 176.806 176.806 176.806-81.036 176.806-176.806v0c0-95.77-81.036-176.806-176.806-176.806z" />
<glyph unicode="&#xe93c;" glyph-name="shopping-cart" horiz-adv-x="1242" d="M647.356 53.819c0-65.005-52.697-117.701-117.701-117.701s-117.701 52.697-117.701 117.701c0 65.005 52.697 117.701 117.701 117.701s117.701-52.697 117.701-117.701zM1059.31 53.819c0-65.005-52.697-117.701-117.701-117.701s-117.701 52.697-117.701 117.701c0 65.005 52.697 117.701 117.701 117.701s117.701-52.697 117.701-117.701zM35.31 889.497h158.897l176.552-629.701c5.885-17.655 17.655-29.425 35.31-29.425h653.241c17.655 0 29.425 11.77 35.31 23.54l147.126 512c5.885 17.655-5.885 41.195-23.54 47.080-5.885 0-5.885 0-11.77 0h-918.069l-35.31 117.701c0 17.655-17.655 29.425-35.31 29.425h-182.437c-17.655 0-35.31-17.655-35.31-35.31s17.655-35.31 35.31-35.31zM912.184 377.497h-364.874c-17.655 0-35.31 17.655-35.31 35.31s17.655 35.31 35.31 35.31h364.874c17.655 0 35.31-17.655 35.31-35.31s-17.655-35.31-35.31-35.31zM476.69 595.244h506.115c17.655 0 35.31-17.655 35.31-35.31s-17.655-35.31-35.31-35.31v0h-506.115c-17.655 0-35.31 17.655-35.31 35.31s11.77 35.31 35.31 35.31z" />
<glyph unicode="&#xe93d;" glyph-name="user-alt" horiz-adv-x="902" d="M446.984 960c-146.286 0-268.19-121.905-268.19-268.19s121.905-268.19 268.19-268.19c146.286 0 268.19 121.905 268.19 268.19 0 0 0 0 0 0 8.127 146.286-113.778 268.19-268.19 268.19zM788.317 244.825c-73.143 73.143-170.667 113.778-276.317 113.778h-121.905c-105.651 0-203.175-40.635-276.317-113.778s-113.778-178.794-113.778-276.317c0-16.254 16.254-32.508 32.508-32.508h837.079c16.254 0 32.508 16.254 32.508 32.508 0 97.524-40.635 203.175-113.778 276.317z" />
<glyph unicode="&#xe93e;" glyph-name="mobile-sms" horiz-adv-x="793" d="M78.049-64h405.854c43.707 0 78.049 34.341 78.049 78.049 0 18.732 0-68.683 0 184.195 140.488 9.366 243.512 131.122 231.024 271.61-9.366 124.878-109.268 221.659-231.024 231.024 0 18.732 0-68.683 0 184.195 0 43.707-34.341 78.049-78.049 78.049h-405.854c-43.707-3.122-78.049-37.463-78.049-81.171 0-3.122 0-930.341 0-871.024 0-40.585 34.341-74.927 78.049-74.927zM533.854 700.878c-140.488-3.122-249.756-118.634-246.634-256 0-56.195 18.732-109.268 53.073-149.854l-128-74.927c-6.244-3.122-6.244-9.366-3.122-15.61 3.122-3.122 6.244-6.244 9.366-6.244h315.317v-99.902h-508.878v702.439h508.878v-99.902zM480.78-42.146h-405.854c-28.098 0-53.073 24.976-53.073 53.073v59.317h508.878v-59.317c3.122-28.098-18.732-53.073-49.951-53.073zM768 448c0-124.878-103.024-227.902-227.902-227.902h-277.854l103.024 59.317c6.244 3.122 9.366 9.366 3.122 15.61 0 0 0 0 0 3.122-84.293 93.659-74.927 240.39 21.854 321.561s240.39 74.927 321.561-21.854c34.341-40.585 56.195-93.659 56.195-149.854v0zM24.976 881.951c0 28.098 24.976 53.073 53.073 53.073h405.854c28.098 0 53.073-24.976 53.073-53.073v-59.317h-512v59.317zM390.244 891.317h-15.61c-6.244 0-12.488-6.244-12.488-12.488s6.244-12.488 12.488-12.488h12.488c6.244 0 12.488 6.244 12.488 12.488s-3.122 12.488-9.366 12.488v0zM315.317 891.317h-146.732c-6.244 0-12.488-6.244-12.488-12.488s6.244-12.488 12.488-12.488h146.732c6.244 0 12.488 6.244 12.488 12.488s-6.244 12.488-12.488 12.488v0 0zM293.463 26.537h-28.098c-6.244 0-12.488-6.244-12.488-12.488s6.244-12.488 12.488-12.488h28.098c6.244 0 12.488 6.244 12.488 12.488s-6.244 12.488-12.488 12.488z" />
<glyph unicode="&#xe93f;" glyph-name="quick-view" horiz-adv-x="2112" d="M685.933-62.628c-431.158 0-671.234 470.354-681.033 489.952-4.9 14.699-4.9 29.397 0 44.096 9.799 19.598 249.876 489.952 681.033 489.952s671.234-470.354 681.033-489.952c4.9-14.699 4.9-29.397 0-44.096-14.699-19.598-254.775-489.952-681.033-489.952zM102.89 446.922c48.995-88.191 259.675-411.56 578.144-411.56s529.148 323.368 578.144 411.56c-48.995 88.191-259.675 411.56-578.144 411.56s-524.249-323.368-578.144-411.56zM685.933 226.444c-122.488 0-220.478 97.99-220.478 220.478s97.99 220.478 220.478 220.478c122.488 0 220.478-97.99 220.478-220.478s-97.99-220.478-220.478-220.478zM685.933 574.31c-68.593 0-122.488-53.895-122.488-122.488s53.895-122.488 122.488-122.488 122.488 53.895 122.488 122.488c0 63.694-53.895 122.488-122.488 122.488zM2111.694 435.751h-504.651v88.191h499.751v-88.191zM1905.914 205.474h-93.091v534.048h93.091v-534.048z" />
<glyph unicode="&#xe940;" glyph-name="whatsapp-circle" d="M512 960c-281.6 0-512-230.4-512-512s230.4-512 512-512 512 230.4 512 512c0 281.6-230.4 512-512 512zM798.72 309.76c-76.8-158.72-271.36-220.16-424.96-143.36l-158.72-35.84c-5.12 0-10.24 0-15.36 5.12 0 5.12-5.12 5.12 0 10.24l35.84 163.84c-61.44 122.88-40.96 271.36 61.44 368.64 122.88 122.88 327.68 122.88 450.56 0 0 0 0 0 0 0v0c0 0 0 0 0 0 87.040-102.4 107.52-245.76 51.2-368.64zM686.080 627.2c-71.68 76.8-189.44 92.16-286.72 46.080-122.88-61.44-174.080-209.92-112.64-332.8l10.24-20.48-20.48-97.28 97.28 25.6 20.48-10.24c97.28-46.080 209.92-30.72 286.72 46.080v0c102.4 87.040 102.4 245.76 5.12 343.040 5.12 0 0 0 0 0zM680.96 350.72c0 0 0-5.12 0-5.12v0c-10.24-20.48-30.72-40.96-56.32-46.080-40.96-10.24-107.52 0-184.32 76.8v0c-71.68 66.56-87.040 117.76-81.92 163.84 0 20.48 15.36 46.080 35.84 56.32 10.24 10.24 25.6 5.12 30.72-5.12 0 0 5.12-5.12 5.12-5.12l25.6-56.32c5.12-10.24 0-15.36-5.12-25.6l-10.24-10.24c-5.12-5.12-5.12-15.36 0-25.6 10.24-20.48 25.6-35.84 46.080-51.2s40.96-30.72 61.44-46.080c10.24-5.12 20.48 0 25.6 5.12l15.36 15.36c5.12 5.12 15.36 10.24 20.48 5.12l61.44-15.36c5.12-5.12 15.36-15.36 10.24-30.72z" />
<glyph unicode="&#xe941;" glyph-name="wolt" d="M496.64 499.2c0 10.24-5.12 15.36-5.12 25.6v0c0 0 0 0 0 0-10.24-20.48-20.48-35.84-25.6-56.32-5.12-25.6-5.12-51.2-5.12-76.8 0-10.24 0-15.36 5.12-25.6 0-5.12 5.12-10.24 5.12-10.24 0-5.12 5.12-5.12 10.24-5.12 0 0 0 0 0 0s0 0 5.12 5.12 5.12 5.12 5.12 10.24c5.12 15.36 10.24 25.6 15.36 40.96 5.12 20.48 10.24 40.96 10.24 56.32 0 5.12 0 10.24 0 15.36-5.12 0-10.24 5.12-15.36 10.24-5.12 0-5.12 5.12-5.12 10.24zM512 960c-281.6 0-512-230.4-512-512s230.4-512 512-512c281.6 0 512 230.4 512 512s-230.4 512-512 512zM384 529.92c0-25.6-5.12-46.080-10.24-66.56-5.12-35.84-15.36-66.56-25.6-92.16-5.12-20.48-15.36-40.96-30.72-56.32-5.12-5.12-10.24-15.36-15.36-20.48-10.24-10.24-25.6-15.36-40.96-15.36s-30.72 10.24-35.84 20.48c-5.12 10.24-10.24 15.36-10.24 25.6-5.12 30.72-10.24 61.44-10.24 92.16 0 0 0 0 0 0l-5.12-10.24c-20.48-56.32-46.080-107.52-71.68-158.72 0-5.12-5.12-5.12-10.24-10.24 0 0-5.12 0-10.24 0h-5.12c0 0 0 0 0 0-10.24 0-20.48 5.12-30.72 10.24-5.12 5.12-10.24 10.24-10.24 15.36 0 15.36-5.12 30.72-5.12 46.080 0 20.48 0 46.080-5.12 66.56 0 0 0 0 0 5.12v56.32c0 0 0 0 0 5.12 0 20.48 0 40.96 5.12 66.56 0 15.36 5.12 30.72 5.12 46.080 0 5.12 5.12 15.36 10.24 20.48s15.36 10.24 25.6 10.24c15.36 5.12 25.6 5.12 40.96 5.12 5.12 0 5.12 0 5.12-5.12 0 0 0 0 0-5.12-5.12-30.72-10.24-56.32-15.36-81.92-5.12-20.48-5.12-35.84-10.24-56.32 0-15.36-5.12-30.72-5.12-51.2 0-10.24 0-25.6 0-35.84s0-20.48 0-30.72c0-15.36 0-30.72 0-46.080 0 0 0 0 0 0 0 5.12 5.12 5.12 5.12 10.24 20.48 35.84 35.84 76.8 46.080 112.64 15.36 35.84 30.72 71.68 40.96 107.52 0 5.12 5.12 10.24 15.36 10.24s25.6 5.12 35.84 5.12c10.24 0 10.24-5.12 10.24-10.24 0-20.48 0-35.84 0-56.32 0-15.36 0-25.6 0-40.96s0-30.72 5.12-46.080c0-10.24 0-25.6 5.12-35.84 0-5.12 0-10.24 5.12-15.36 0 0 0-5.12 5.12-5.12 0-5.12 5.12-5.12 10.24 0 0 0 0 0 0 0 5.12 5.12 5.12 10.24 10.24 10.24 10.24 15.36 15.36 30.72 20.48 51.2 5.12 25.6 10.24 56.32 15.36 81.92 0 20.48 5.12 40.96 0 56.32 0 20.48 0 40.96-5.12 61.44 0 20.48-5.12 40.96-10.24 61.44 0 5.12 0 5.12 0 10.24 0 0 0 0 0 0 0 5.12 0 5.12 5.12 5.12 10.24 0 15.36 0 25.6-5.12 0 5.12 5.12 5.12 10.24 0 10.24-5.12 15.36-10.24 15.36-20.48s5.12-25.6 5.12-40.96c0-20.48 0-40.96-5.12-56.32zM957.44 570.88c-15.36-5.12-30.72-10.24-51.2-10.24-35.84-10.24-71.68-15.36-107.52-20.48 0 0-5.12 0-5.12 0s0 0 0 0c-5.12-25.6-10.24-51.2-15.36-76.8-5.12-20.48-5.12-40.96-5.12-61.44 0-5.12 0-5.12 0-10.24s5.12-10.24 10.24-5.12c0 0 0 0 0 0 5.12 0 10.24 5.12 15.36 10.24 10.24 10.24 25.6 20.48 35.84 30.72 30.72 30.72 56.32 66.56 81.92 97.28 0 0 5.12 5.12 5.12 5.12s5.12 0 5.12 0c0-5.12 0-10.24 0-15.36 0-15.36-5.12-30.72-15.36-40.96-5.12-5.12-10.24-15.36-15.36-20.48-15.36-20.48-30.72-35.84-51.2-51.2-10.24-10.24-25.6-20.48-40.96-25.6-10.24-5.12-20.48-5.12-25.6-5.12-20.48 0-40.96 10.24-56.32 30.72-5.12 5.12-5.12 15.36-5.12 25.6 0 0 0 5.12 0 5.12l-5.12-5.12c-10.24-20.48-30.72-40.96-46.080-56.32-5.12-5.12-15.36-10.24-20.48-10.24-10.24 0-15.36-5.12-25.6 0-10.24 0-20.48 5.12-30.72 10.24-5.12 5.12-10.24 10.24-10.24 20.48 0 5.12 0 15.36 0 20.48 0 25.6 0 51.2 0 76.8 0 10.24 0 25.6 5.12 35.84 0 0 0 0 0 0l-5.12-5.12c-10.24-10.24-25.6-15.36-40.96-20.48 0 0 0 0 0-5.12 0-10.24 0-20.48 0-30.72 0-20.48-5.12-40.96-15.36-61.44-5.12-15.36-10.24-30.72-20.48-40.96-5.12-5.12-10.24-10.24-10.24-15.36-5.12-5.12-15.36-10.24-20.48-5.12-15.36 0-25.6 5.12-40.96 10.24-10.24-15.36-20.48-5.12-20.48 10.24-5.12 15.36-5.12 25.6-5.12 40.96s0 35.84 0 51.2c5.12 25.6 10.24 46.080 20.48 71.68 0 0 0 5.12 5.12 5.12 5.12 10.24 15.36 15.36 25.6 15.36 20.48 0 40.96 0 61.44-5.12 10.24-5.12 20.48-10.24 20.48-20.48 0-5.12 0-10.24 5.12-15.36 5.12 0 5.12 0 10.24 5.12 15.36 5.12 30.72 15.36 46.080 25.6 0 0 0 0 0 0 5.12 25.6 5.12 56.32 15.36 81.92 0 10.24 5.12 20.48 5.12 25.6s5.12 10.24 10.24 5.12 20.48 0 25.6-5.12c5.12 0 10.24-5.12 15.36-5.12s10.24-10.24 10.24-15.36c0-20.48-5.12-40.96-15.36-61.44-5.12-5.12-5.12-15.36-10.24-20.48 0-5.12 0-10.24-5.12-15.36 0-15.36-5.12-35.84-5.12-51.2s-5.12-35.84-5.12-51.2 0-35.84 0-51.2c0-5.12 0-5.12 0-10.24s5.12-5.12 5.12-5.12c0 0 0 0 5.12 0s5.12 5.12 10.24 10.24c10.24 10.24 25.6 25.6 30.72 40.96 10.24 15.36 20.48 30.72 30.72 51.2 0 5.12 5.12 5.12 5.12 10.24 5.12 15.36 5.12 35.84 10.24 51.2 0 0 0 0 0 0-5.12 0-10.24 0-15.36 0s-10.24 0-15.36 0c-5.12 0-5.12 0-5.12 5.12 0 0 0 0 0 0 0 10.24 0 20.48 5.12 30.72 0 5.12 5.12 5.12 10.24 5.12 10.24 0 20.48 0 30.72 0 0 0 5.12 0 5.12 5.12 0 0 0 0 0 0 5.12 15.36 10.24 30.72 15.36 51.2 0 5.12 5.12 5.12 10.24 5.12 15.36 0 25.6 0 40.96-5.12 0 0 0 0 5.12 0s5.12-5.12 5.12-10.24c-5.12-10.24-5.12-25.6-10.24-35.84 0 0 0 0 0 0h10.24c20.48 0 35.84 5.12 56.32 5.12s35.84 0 56.32 5.12c10.24 0 20.48 0 30.72 0 0 0 5.12 0 5.12 0 5.12 0 5.12 0 0-5.12-10.24 0-15.36-5.12-20.48-5.12z" />
<glyph unicode="&#xe942;" glyph-name="linkedin-circle" d="M512 960c-283.307 0-512-228.693-512-512s228.693-512 512-512 512 228.693 512 512-228.693 512-512 512zM344.747 140.8h-129.707v409.6h126.293v-409.6zM354.987 680.107c0-40.96-34.133-75.093-75.093-75.093s-75.093 34.133-75.093 75.093 34.133 75.093 75.093 75.093c0 0 0 0 0 0 40.96 0 75.093-34.133 75.093-75.093 0 0 0 0 0 0zM819.2 144.213v0h-126.293v197.973c0 47.787 0 109.227-64.853 109.227s-75.093-51.2-75.093-105.813v-201.387h-126.293v406.187h122.88v-54.613c23.893 40.96 71.68 68.267 119.467 64.853 129.707 0 153.6-85.333 153.6-194.56v-221.867z" />
<glyph unicode="&#xe943;" glyph-name="linkedin-vibez" d="M1024-64v375.047c0 184.32-39.701 325.106-254.741 325.106-2.719 0.119-5.909 0.187-9.115 0.187-81.475 0-152.711-43.842-191.402-109.221l-0.565-1.032h-2.574v93.419h-203.37v-683.506h212.466v339.179c0 89.586 16.647 175.339 126.713 175.339 108.693 0 110.066-101.141 110.066-180.487v-332.829h212.466zM16.647 619.506h212.466v-683.563h-212.466zM122.88 960c-0.118 0-0.259 0.001-0.399 0.001-68.212 0-123.509-55.297-123.509-123.509s55.297-123.509 123.509-123.509c68.212 0 123.509 55.297 123.509 123.509 0 0.221-0.001 0.442-0.002 0.663v-0.034c-0.033 67.872-55.061 122.88-122.937 122.88-0.060 0-0.121 0-0.181 0h0.009z" />
<glyph unicode="&#xe944;" glyph-name="tiktok-circle" d="M512 960c-282.77 0-512-229.23-512-512s229.23-512 512-512c282.77 0 512 229.23 512 512v0c0 282.77-229.23 512-512 512v0zM768.853 568.252v-69.325c-0.105 0-0.229 0-0.353 0-55.853 0-107.286 18.929-148.231 50.722l0.548-0.41 0.478-213.402c-0.127-49.829-20.621-94.847-53.595-127.187l-0.028-0.028c-26.796-26.594-61.817-44.934-100.912-50.869l-1.011-0.126c-8.242-1.282-17.748-2.014-27.424-2.014-0.043 0-0.085 0-0.128 0h0.007c-0.182-0.001-0.397-0.001-0.613-0.001-42.203 0-81.071 14.279-112.037 38.269l0.419-0.312c-6.327 4.897-11.948 9.825-17.255 15.071l0.018-0.018c-33.119 32.571-53.641 77.861-53.641 127.944 0 45.96 17.282 87.883 45.702 119.626l-0.151-0.171c33.684 37.771 82.488 61.441 136.819 61.441 0.259 0 0.519-0.001 0.778-0.002h-0.040c9.726-0.006 19.272-0.751 28.592-2.18l-1.047 0.132v-96.939c-8.050 2.739-17.323 4.32-26.965 4.32-47.675 0-86.323-38.648-86.323-86.323s38.648-86.323 86.323-86.323c47.675 0 86.323 38.648 86.323 86.323 0 0.029 0 0.059 0 0.088v-0.005 403.797h95.573c0.792-81.022 66.657-146.398 147.791-146.398 0.026 0 0.053 0 0.079 0h0.269v-25.737z" />
<glyph unicode="&#xe945;" glyph-name="tiktok-vibez" d="M958.841 702.006c-0.050 0-0.108 0-0.167 0-59.203 0-113.778 19.813-157.457 53.17l0.629-0.461c-62.639 47.448-102.889 121.616-103.639 205.218l-0.001 0.121h-168.259v-711.626c0-0.092 0-0.201 0-0.31 0-84.236-68.286-152.522-152.522-152.522s-152.522 68.286-152.522 152.522c0 84.236 68.286 152.522 152.522 152.522 17.136 0 33.612-2.826 48.987-8.037l-1.075 0.316v170.9c-14.567 2.285-31.377 3.597-48.491 3.611h-0.015c-0.368 0.002-0.802 0.002-1.237 0.002-95.834 0-181.909-41.779-241.007-108.116l-0.282-0.322c-49.809-55.641-80.259-129.519-80.259-210.51 0-88.271 36.17-168.094 94.497-225.456l0.044-0.043c9.329-9.229 19.241-17.928 29.653-26.014l0.744-0.556c53.831-41.724 122.326-66.885 196.697-66.885 0.386 0 0.771 0.001 1.156 0.002h-0.060c0.031 0 0.068 0 0.104 0 17.079 0 33.856 1.293 50.238 3.787l-1.837-0.23c70.68 10.672 132.403 42.984 179.652 89.863l-0.021-0.021c58.154 57.048 94.265 136.387 94.477 224.162v0.040l-0.97 376.077c71.196-55.302 161.837-88.657 260.269-88.657 0.223 0 0.447 0 0.67 0.001h-0.035v167.505h-0.485z" />
<glyph unicode="&#xe946;" glyph-name="youtube-circle" d="M512 960c283.307 0 512-228.693 512-512s-228.693-512-512-512-512 228.693-512 512 228.693 512 512 512zM583.68 441.173l-112.64-61.44c-3.413-3.413-10.24 0-10.24 6.827v126.293c0 6.827 3.413 10.24 10.24 6.827l112.64-64.853c3.413-3.413 6.827-6.827 0-13.653 3.413 0 3.413 0 0 0zM764.587 512.853c0 61.44-47.787 109.227-109.227 109.227v0h-283.307c-61.44 0-109.227-47.787-109.227-109.227v-133.12c0-61.44 47.787-109.227 109.227-109.227v0h283.307c61.44 0 109.227 47.787 109.227 109.227 0 0 0 0 0 0v133.12z" />
<glyph unicode="&#xe947;" glyph-name="youtube-vibez" d="M509.099 81.863v0c-6.904-0.064-15.064-0.1-23.233-0.1-125.57 0-249.138 8.575-370.148 25.172l14.046-1.577c-54.169 14.884-96 56.602-110.784 109.599l-0.264 1.107c-12.068 62.681-18.972 134.77-18.972 208.472 0 8.551 0.093 17.080 0.278 25.586l-0.022-1.269c-0.161 7.269-0.253 15.833-0.253 24.42 0 74.281 6.882 146.954 20.044 217.417l-1.131-7.283c15.313 54.050 56.786 95.843 109.513 111.33l1.136 0.286h0.398c107.178 14.543 231.054 22.844 356.869 22.844 7.82 0 15.633-0.032 23.438-0.096l-1.199 0.008h0.569c6.99 0.066 15.253 0.103 23.525 0.103 125.509 0 249.010-8.597 369.946-25.234l-14.022 1.579c53.93-14.982 95.555-56.569 110.327-109.371l0.265-1.107c12.25-62.201 19.259-133.719 19.259-206.874 0-10.153-0.135-20.274-0.403-30.362l0.031 1.489c0.159-7.149 0.249-15.574 0.249-24.019 0-73.684-6.881-145.761-20.035-215.624l1.126 7.195c-15.018-54.047-56.751-95.742-109.713-110.444l-1.106-0.262c-107.214-14.541-231.137-22.842-356.999-22.842-7.754 0-15.501 0.032-23.24 0.094l1.188-0.008zM95.573 662.983c-10.277-57.435-16.153-123.551-16.153-191.039 0-7.938 0.081-15.858 0.243-23.758l-0.019 1.179v-1.024c-0.197-7.654-0.309-16.665-0.309-25.702 0-65.724 5.928-130.064 17.28-192.514l-0.985 6.532c7.44-26.586 27.995-47.084 54.068-54.314l0.545-0.129c99.966-13.3 215.547-20.891 332.901-20.891 9.146 0 18.281 0.046 27.404 0.138l-1.394-0.011c7.595-0.075 16.569-0.118 25.552-0.118 117.534 0 233.358 7.319 347.042 21.526l-13.568-1.383c26.565 7.403 47.069 27.888 54.369 53.896l0.131 0.547c10.361 55.994 16.286 120.424 16.286 186.237 0 8.927-0.109 17.829-0.326 26.704l0.025-1.314c0 0.398 0 0.853 0 1.252 0.287 9.095 0.45 19.79 0.45 30.524 0 64.837-5.96 128.282-17.361 189.818l0.982-6.382c-7.426 26.639-28.009 47.185-54.124 54.427l-0.546 0.129c-99.922 13.338-215.445 20.951-332.746 20.951-9.221 0-18.43-0.047-27.628-0.141l1.406 0.011c-7.755 0.078-16.921 0.123-26.098 0.123-117.297 0-232.895-7.279-346.365-21.41l13.551 1.376c-26.586-7.868-47.042-28.532-54.477-54.678l-0.137-0.562zM961.024 225.621v0zM407.666 288.711v322.219l278.471-161.109z" />
<glyph unicode="&#xe948;" glyph-name="custom_service-vibez" d="M512-64c282.282 0 512 229.718 512 512s-229.715 512-512 512-512-229.718-512-512 229.718-512 512-512zM512 891.734c244.735 0 443.734-198.997 443.734-443.734s-198.997-443.734-443.734-443.734-443.734 198.997-443.734 443.734 198.999 443.734 443.734 443.734zM661.334 284.84c6.316-5.119 13.823-7.51 21.333-7.51 10.069 0 19.968 4.438 26.623 12.8 11.777 14.678 9.385 36.182-5.29 47.959l-157.867 126.294v256.683c0 18.774-15.359 34.133-34.133 34.133s-34.133-15.359-34.133-34.133v-273.068c0-10.411 4.78-20.139 12.8-26.623z" />
<glyph unicode="&#xe949;" glyph-name="location-vibez" d="M512 960c-204.49 0-370.854-166.364-370.854-370.852 0-253.776 331.878-626.334 346.008-642.070 13.272-14.782 36.444-14.756 49.692 0 14.13 15.736 346.008 388.294 346.008 642.070-0.004 204.488-166.366 370.852-370.854 370.852zM512 20.542c-111.694 132.676-304.070 394.434-304.070 568.602 0 167.668 136.404 304.072 304.070 304.072s304.070-136.404 304.070-304.070c-0.002-174.176-192.348-435.886-304.070-568.604zM512 775.732c-102.884 0-186.584-83.702-186.584-186.586s83.702-186.586 186.584-186.586 186.582 83.702 186.582 186.586-83.7 186.586-186.582 186.586zM512 469.344c-66.060 0-119.8 53.742-119.8 119.802s53.742 119.802 119.8 119.802 119.8-53.742 119.8-119.802-53.742-119.802-119.8-119.802z" />
<glyph unicode="&#xe94a;" glyph-name="bookmark" horiz-adv-x="816" d="M780.531-64c-7.161 0-14.322 0-21.483 7.161l-350.881 250.629-350.881-250.629c-14.322-7.161-28.643-7.161-35.804 0-14.322 0-21.483 14.322-21.483 28.643v844.979c0 78.769 64.448 143.217 143.217 143.217h529.902c78.769 0 143.217-64.448 143.217-143.217v-852.14c0-14.322-7.161-28.643-21.483-28.643-7.161 0-7.161 0-14.322 0zM408.168 272.559c7.161 0 14.322 0 21.483-7.161l315.077-221.986v773.371c0 35.804-28.643 71.608-71.608 71.608h-529.902c-42.965 0-71.608-28.643-71.608-71.608v-780.531l315.077 221.986c7.161 7.161 14.322 14.322 21.483 14.322z" />
<glyph unicode="&#xe94b;" glyph-name="bookmark-fill" horiz-adv-x="816" d="M780.531-64c-7.161 0-14.322 0-21.483 7.161l-350.881 250.629-350.881-250.629c-14.322-7.161-28.643-7.161-35.804 0-14.322 0-21.483 14.322-21.483 28.643v844.979c0 78.769 64.448 143.217 143.217 143.217h529.902c78.769 0 143.217-64.448 143.217-143.217v-852.14c0-14.322-7.161-28.643-21.483-28.643-7.161 0-7.161 0-14.322 0z" />
</font>
</defs>
</svg>
